Nikita: La Cara del Peligro (La Femme Nikita) [1990] [5.1] [DVD] [MG] [Español Latino]

Página 2 de 2. Precedente  1, 2

Ver el tema anterior Ver el tema siguiente Ir abajo

Re: Nikita: La Cara del Peligro (La Femme Nikita) [1990] [5.1] [DVD] [MG] [Español Latino]

Mensaje por BuzterBunny el Jue Mayo 12, 2016 7:29 pm

espero funcionen los links, gracias.

BuzterBunny
Novato
Novato

Mensajes : 2
Fecha de inscripción : 12/05/2016

Volver arriba Ir abajo

Re: Nikita: La Cara del Peligro (La Femme Nikita) [1990] [5.1] [DVD] [MG] [Español Latino]

Mensaje por BuzterBunny el Vie Mayo 13, 2016 12:10 pm

solo se escucha la musica y los efectos de sonido, no se escuchan los dialogos Shocked

BuzterBunny
Novato
Novato

Mensajes : 2
Fecha de inscripción : 12/05/2016

Volver arriba Ir abajo

Re: Nikita: La Cara del Peligro (La Femme Nikita) [1990] [5.1] [DVD] [MG] [Español Latino]

Mensaje por alex6 el Miér Mayo 18, 2016 4:52 pm

gracias

alex6
Novato
Novato

Mensajes : 22
Fecha de inscripción : 23/04/2014

Volver arriba Ir abajo

Re: Nikita: La Cara del Peligro (La Femme Nikita) [1990] [5.1] [DVD] [MG] [Español Latino]

Mensaje por claudio valdes el Mar Jun 14, 2016 8:53 pm

GRACIAS

claudio valdes
Novato
Novato

Mensajes : 23
Fecha de inscripción : 10/06/2016

Volver arriba Ir abajo

Re: Nikita: La Cara del Peligro (La Femme Nikita) [1990] [5.1] [DVD] [MG] [Español Latino]

Mensaje por Eziodwarte el Miér Jun 15, 2016 2:41 pm

buena página

Eziodwarte
Novato
Novato

Mensajes : 1
Fecha de inscripción : 15/06/2016

Volver arriba Ir abajo

Re: Nikita: La Cara del Peligro (La Femme Nikita) [1990] [5.1] [DVD] [MG] [Español Latino]

Mensaje por luisjano el Miér Sep 14, 2016 9:24 am

Gracias.

luisjano
Novato
Novato

Mensajes : 14
Fecha de inscripción : 06/04/2016

Volver arriba Ir abajo

Re: Nikita: La Cara del Peligro (La Femme Nikita) [1990] [5.1] [DVD] [MG] [Español Latino]

Mensaje por elgamer242 el Vie Sep 23, 2016 11:40 am

gracias por el audio

elgamer242
Novato
Novato

Mensajes : 21
Fecha de inscripción : 07/12/2014

Volver arriba Ir abajo

Re: Nikita: La Cara del Peligro (La Femme Nikita) [1990] [5.1] [DVD] [MG] [Español Latino]

Mensaje por Dany el Miér Nov 09, 2016 10:18 pm

Gracias Amigo !!

Dany
Novato
Novato

Mensajes : 8
Fecha de inscripción : 24/09/2016

Volver arriba Ir abajo

Re: Nikita: La Cara del Peligro (La Femme Nikita) [1990] [5.1] [DVD] [MG] [Español Latino]

Mensaje por resplandor el Sáb Ene 14, 2017 2:49 pm

Gracias funciona para La.Femme.Nikita.1990.PROPER.1080p.BluRay.x264-SADPANDA

Código:
General
Unique ID                                : 175637059767052307510246436196122767013 (0x8422779F54C30F58A868D22A28CA2EA5)
Complete name                            : La.Femme.Nikita.1990.PROPER.1080p.BluRay.x264-SADPANDA.mkv
Format                                  : Matroska
Format version                          : Version 4 / Version 2
File size                                : 9.83 GiB
Duration                                : 1 h 57 min
Overall bit rate                        : 12.0 Mb/s
Encoded date                            : UTC 2016-12-26 15:03:04
Writing application                      : mkvmerge v9.6.0 ('Slave To Your Mind') 64bit
Writing library                          : libebml v1.3.4 + libmatroska v1.4.5

Video
ID                                      : 1
Format                                  : AVC
Format/Info                              : Advanced Video Codec
Format profile                          : High@L4.1
Format settings, CABAC                  : Yes
Format settings, ReFrames                : 5 frames
Codec ID                                : V_MPEG4/ISO/AVC
Duration                                : 1 h 57 min
Bit rate                                : 10.7 Mb/s
Width                                    : 1 920 pixels
Height                                  : 816 pixels
Display aspect ratio                    : 2.35:1
Frame rate mode                          : Constant
Frame rate                              : 23.976 (24000/1001) FPS
Color space                              : YUV
Chroma subsampling                      : 4:2:0
Bit depth                                : 8 bits
Scan type                                : Progressive
Bits/(Pixel*Frame)                      : 0.286
Stream size                              : 8.78 GiB (89%)
Writing library                          : x264 core 148 r2744 b97ae06
Encoding settings                        : cabac=1 / ref=5 / deblock=1:-3:-3 / analyse=0x3:0x113 / me=umh / subme=8 / psy=1 / psy_rd=1.00:0.25 / mixed_ref=1 / me_range=24 / chroma_me=1 / trellis=1 / 8x8dct=1 / cqm=0 / deadzone=21,11 / fast_pskip=1 / chroma_qp_offset=-4 / threads=24 / lookahead_threads=4 / sliced_threads=0 / nr=0 / decimate=1 / interlaced=0 / bluray_compat=0 / constrained_intra=0 / bframes=3 / b_pyramid=2 / b_adapt=1 / b_bias=0 / direct=3 / weightb=1 / open_gop=0 / weightp=2 / keyint=240 / keyint_min=24 / scenecut=40 / intra_refresh=0 / rc_lookahead=50 / rc=2pass / mbtree=1 / bitrate=10726 / ratetol=1.0 / qcomp=0.60 / qpmin=0 / qpmax=69 / qpstep=4 / cplxblur=20.0 / qblur=0.5 / ip_ratio=1.40 / aq=1:0.75
Default                                  : Yes
Forced                                  : No

Audio #1
ID                                      : 2
Format                                  : AC-3
Format/Info                              : Audio Coding 3
Mode extension                          : CM (complete main)
Format settings, Endianness              : Big
Codec ID                                : A_AC3
Duration                                : 1 h 57 min
Bit rate mode                            : Constant
Bit rate                                : 640 kb/s
Channel(s)                              : 6 channels
Channel positions                        : Front: L C R, Side: L R, LFE
Sampling rate                            : 48.0 kHz
Frame rate                              : 31.250 FPS (1536 spf)
Bit depth                                : 16 bits
Compression mode                        : Lossy
Stream size                              : 537 MiB (5%)
Language                                : French
Default                                  : Yes
Forced                                  : No

Audio #2
ID                                      : 3
Format                                  : AC-3
Format/Info                              : Audio Coding 3
Mode extension                          : CM (complete main)
Format settings, Endianness              : Big
Codec ID                                : A_AC3
Duration                                : 1 h 57 min
Bit rate mode                            : Constant
Bit rate                                : 640 kb/s
Channel(s)                              : 6 channels
Channel positions                        : Front: L C R, Side: L R, LFE
Sampling rate                            : 48.0 kHz
Frame rate                              : 31.250 FPS (1536 spf)
Bit depth                                : 16 bits
Compression mode                        : Lossy
Stream size                              : 537 MiB (5%)
Language                                : English
Default                                  : No
Forced                                  : No

Text #1
ID                                      : 4
Format                                  : UTF-8
Codec ID                                : S_TEXT/UTF8
Codec ID/Info                            : UTF-8 Plain Text
Duration                                : 1 h 51 min
Bit rate                                : 22 b/s
Count of elements                        : 763
Stream size                              : 18.6 KiB (0%)
Language                                : English
Default                                  : Yes
Forced                                  : No

Text #2
ID                                      : 5
Format                                  : UTF-8
Codec ID                                : S_TEXT/UTF8
Codec ID/Info                            : UTF-8 Plain Text
Duration                                : 1 h 51 min
Bit rate                                : 24 b/s
Count of elements                        : 880
Stream size                              : 19.9 KiB (0%)
Title                                    : SDH
Language                                : English
Default                                  : No
Forced                                  : No

Menu
00:00:00.000                            : en:00:00:00.000
00:07:45.965                            : en:00:07:45.965
00:13:26.973                            : en:00:13:26.973
00:21:06.849                            : en:00:21:06.849
00:24:57.579                            : en:00:24:57.579
00:35:09.691                            : en:00:35:09.691
00:41:15.264                            : en:00:41:15.264
00:49:15.744                            : en:00:49:15.744
00:55:00.714                            : en:00:55:00.714
01:02:30.580                            : en:01:02:30.580
01:08:58.051                            : en:01:08:58.051
01:16:13.861                            : en:01:16:13.861
01:28:49.032                            : en:01:28:49.032
01:34:41.009                            : en:01:34:41.009
01:41:27.415                            : en:01:41:27.415
01:45:53.556                            : en:01:45:53.556

avatar
resplandor
Novato Pro
Novato Pro

Mensajes : 253
Fecha de inscripción : 12/07/2015

Volver arriba Ir abajo

Re: Nikita: La Cara del Peligro (La Femme Nikita) [1990] [5.1] [DVD] [MG] [Español Latino]

Mensaje por Sigfried el Miér Feb 08, 2017 6:34 pm

Gracias por el aporte

Sigfried
Novato
Novato

Mensajes : 42
Fecha de inscripción : 11/07/2014

Volver arriba Ir abajo

Re: Nikita: La Cara del Peligro (La Femme Nikita) [1990] [5.1] [DVD] [MG] [Español Latino]

Mensaje por gos2204 el Lun Mar 13, 2017 4:33 pm

gracias por el aporte

gos2204
Novato
Novato

Mensajes : 18
Fecha de inscripción : 22/08/2014

Volver arriba Ir abajo

Re: Nikita: La Cara del Peligro (La Femme Nikita) [1990] [5.1] [DVD] [MG] [Español Latino]

Mensaje por Seiya el Vie Jun 09, 2017 5:42 pm

Muchas Gracias Very Happy
avatar
Seiya
Novato
Novato

Mensajes : 30
Fecha de inscripción : 05/04/2014
Localización : Argentina

Volver arriba Ir abajo

Re: Nikita: La Cara del Peligro (La Femme Nikita) [1990] [5.1] [DVD] [MG] [Español Latino]

Mensaje por armsa el Dom Jun 18, 2017 5:09 pm

muchas gracias

armsa
Novato Avanzado
Novato Avanzado

Mensajes : 143
Fecha de inscripción : 05/07/2016

Volver arriba Ir abajo

Re: Nikita: La Cara del Peligro (La Femme Nikita) [1990] [5.1] [DVD] [MG] [Español Latino]

Mensaje por Darth el Miér Jul 12, 2017 4:31 am

Gracias, y espero que aun funcione el link...

Darth
Novato
Novato

Mensajes : 20
Fecha de inscripción : 12/07/2017

Volver arriba Ir abajo

Re: Nikita: La Cara del Peligro (La Femme Nikita) [1990] [5.1] [DVD] [MG] [Español Latino]

Mensaje por jcarbajal el Miér Jul 12, 2017 4:58 am

muchas gracias

jcarbajal
Novato
Novato

Mensajes : 51
Fecha de inscripción : 21/02/2017

Volver arriba Ir abajo

Re: Nikita: La Cara del Peligro (La Femme Nikita) [1990] [5.1] [DVD] [MG] [Español Latino]

Mensaje por richardsr8 el Dom Sep 17, 2017 9:58 am

gracias

richardsr8
Novato
Novato

Mensajes : 1
Fecha de inscripción : 18/09/2016

Volver arriba Ir abajo

Re: Nikita: La Cara del Peligro (La Femme Nikita) [1990] [5.1] [DVD] [MG] [Español Latino]

Mensaje por Contenido patrocinado


Contenido patrocinado


Volver arriba Ir abajo

Página 2 de 2. Precedente  1, 2

Ver el tema anterior Ver el tema siguiente Volver arriba

- Temas similares

 
Permisos de este foro:
No puedes responder a temas en este foro.