Scooby-Doo (The Movie)[2002][5.1][AC3][MEGA][LATINO]

Ir abajo

Scooby-Doo (The Movie)[2002][5.1][AC3][MEGA][LATINO]

Mensaje por Admin el Sáb Nov 29, 2014 10:22 pm

Scooby-Doo (The Movie)
[2002][5.1]







Código:

Audio
Source...........................: DVD
Format...........................: AC3
Duration.........................: 1h 26mn
Bit rate.........................: 448 Kbps
Channel(s).......................: 6 channels
Sampling rate....................: 48.0 KHz
File size........................: 277 MiB



Comenta Para Ver Los Links
LINK MEGA:

[Tienes que estar registrado y conectado para ver este vínculo]
[Tienes que estar registrado y conectado para ver este vínculo]
[Tienes que estar registrado y conectado para ver este vínculo]
PASS:audiosparapeliculas.foroa.org


Saludos Very Happy


avatar
Admin
Admin
Admin

Mensajes : 669
Fecha de inscripción : 22/04/2012

http://audiosparapeliculas.foroa.org

Volver arriba Ir abajo

Re: Scooby-Doo (The Movie)[2002][5.1][AC3][MEGA][LATINO]

Mensaje por ralf79 el Sáb Nov 29, 2014 11:00 pm

gracias por el audio

ralf79
Novato
Novato

Mensajes : 49
Fecha de inscripción : 03/05/2014

Volver arriba Ir abajo

Re: Scooby-Doo (The Movie)[2002][5.1][AC3][MEGA][LATINO]

Mensaje por leonardopulgaman el Lun Dic 29, 2014 3:56 pm

genial!

leonardopulgaman
Novato
Novato

Mensajes : 6
Fecha de inscripción : 21/12/2014

Volver arriba Ir abajo

Re: Scooby-Doo (The Movie)[2002][5.1][AC3][MEGA][LATINO]

Mensaje por krakens el Dom Mayo 01, 2016 9:15 pm

aver

krakens
Novato
Novato

Mensajes : 1
Fecha de inscripción : 01/05/2016

Volver arriba Ir abajo

Re: Scooby-Doo (The Movie)[2002][5.1][AC3][MEGA][LATINO]

Mensaje por jorgehernan el Dom Mayo 29, 2016 10:07 am

gracias!


jorgehernan
Novato
Novato

Mensajes : 1
Fecha de inscripción : 29/05/2016

Volver arriba Ir abajo

Re: Scooby-Doo (The Movie)[2002][5.1][AC3][MEGA][LATINO]

Mensaje por Danny Allen el Miér Abr 05, 2017 5:28 pm

Quiero probar esta calidad Very Happy

Danny Allen
Novato
Novato

Mensajes : 1
Fecha de inscripción : 05/04/2017

Volver arriba Ir abajo

Re: Scooby-Doo (The Movie)[2002][5.1][AC3][MEGA][LATINO]

Mensaje por bigo9999 el Jue Abr 06, 2017 5:46 pm

q

bigo9999
Novato
Novato

Mensajes : 1
Fecha de inscripción : 06/04/2017

Volver arriba Ir abajo

Re: Scooby-Doo (The Movie)[2002][5.1][AC3][MEGA][LATINO]

Mensaje por resplandor el Jue Jul 06, 2017 11:29 pm

Gracias!
Funciona para Scooby.Doo.2002.1080p.BluRay.REMUX.VC-1.DD.5.1-EPSiLON
Delay: +3,500ms

Código:
General
Unique ID                                : 193615646133866309911576694782270005775 (0x91A9045DFC5DC75CBF9296B26702620F)
Complete name                            : Scooby.Doo.2002.1080p.BluRay.REMUX.VC-1.DD.5.1-EPSiLON.mkv
Format                                   : Matroska
Format version                           : Version 4 / Version 2
File size                                : 14.2 GiB
Duration                                 : 1 h 26 min
Overall bit rate                         : 23.4 Mb/s
Movie name                               : Scooby.Doo.2002.1080p.BluRay.REMUX.VC-1.DD.5.1-EPSiLON
Encoded date                             : UTC 2017-06-27 01:03:44
Writing application                      : mkvmerge v13.0.0 ('The Juggler') 64bit
Writing library                          : libebml v1.3.4 + libmatroska v1.4.5

Video
ID                                       : 1
Format                                   : VC-1
Format profile                           : Advanced@L3
Codec ID                                 : V_MS/VFW/FOURCC / WVC1
Codec ID/Hint                            : Microsoft
Duration                                 : 1 h 26 min
Bit rate                                 : 21.8 Mb/s
Width                                    : 1 920 pixels
Height                                   : 1 080 pixels
Display aspect ratio                     : 16:9
Frame rate mode                          : Constant
Frame rate                               : 23.976 (24000/1001) FPS
Color space                              : YUV
Chroma subsampling                       : 4:2:0
Bit depth                                : 8 bits
Scan type                                : Progressive
Compression mode                         : Lossy
Bits/(Pixel*Frame)                       : 0.438
Stream size                              : 13.2 GiB (93%)
Title                                    : VC-1 Video / 21787 kbps / 1080p / 23.976 fps / 16:9 / Advanced Profile 3
Language                                 : English
Default                                  : Yes
Forced                                   : No

Audio #1
ID                                       : 2
Format                                   : AC-3
Format/Info                              : Audio Coding 3
Format settings, Endianness              : Big
Codec ID                                 : A_AC3
Duration                                 : 1 h 26 min
Bit rate mode                            : Constant
Bit rate                                 : 640 kb/s
Channel(s)                               : 6 channels
Channel positions                        : Front: L C R, Side: L R, LFE
Sampling rate                            : 48.0 kHz
Frame rate                               : 31.250 FPS (1536 spf)
Bit depth                                : 16 bits
Compression mode                         : Lossy
Stream size                              : 396 MiB (3%)
Title                                    : Dolby Digital Audio / 5.1 / 48 kHz / 640 kbps
Language                                 : English
Service kind                             : Complete Main
Default                                  : Yes
Forced                                   : No

Audio #2
ID                                       : 3
Format                                   : AC-3
Format/Info                              : Audio Coding 3
Mode                                     : Dolby Digital
Format settings, Endianness              : Big
Codec ID                                 : A_AC3
Duration                                 : 1 h 26 min
Bit rate mode                            : Constant
Bit rate                                 : 192 kb/s
Channel(s)                               : 2 channels
Channel positions                        : Front: L R
Sampling rate                            : 48.0 kHz
Frame rate                               : 31.250 FPS (1536 spf)
Bit depth                                : 16 bits
Compression mode                         : Lossy
Stream size                              : 119 MiB (1%)
Title                                    : Commentary by Director Raja Gosnell and Co-Producers Charles Roven & Richard Suckle
Language                                 : English
Service kind                             : Complete Main
Default                                  : No
Forced                                   : No

Audio #3
ID                                       : 4
Format                                   : AC-3
Format/Info                              : Audio Coding 3
Mode                                     : Dolby Digital
Format settings, Endianness              : Big
Codec ID                                 : A_AC3
Duration                                 : 1 h 26 min
Bit rate mode                            : Constant
Bit rate                                 : 192 kb/s
Channel(s)                               : 2 channels
Channel positions                        : Front: L R
Sampling rate                            : 48.0 kHz
Frame rate                               : 31.250 FPS (1536 spf)
Bit depth                                : 16 bits
Compression mode                         : Lossy
Stream size                              : 119 MiB (1%)
Title                                    : Commentary by actors Freddie Prinze Jr., Sarah Michelle Gellar, Matthew Lillard and Linda Cardellini
Language                                 : English
Service kind                             : Complete Main
Default                                  : No
Forced                                   : No

Text #1
ID                                       : 5
Format                                   : PGS
Codec ID                                 : S_HDMV/PGS
Codec ID/Info                            : Picture based subtitle format used on BDs/HD-DVDs
Duration                                 : 1 h 25 min
Bit rate                                 : 44.9 kb/s
Count of elements                        : 1704
Stream size                              : 27.5 MiB (0%)
Language                                 : English
Default                                  : No
Forced                                   : No

Text #2
ID                                       : 6
Format                                   : PGS
Codec ID                                 : S_HDMV/PGS
Codec ID/Info                            : Picture based subtitle format used on BDs/HD-DVDs
Duration                                 : 1 h 26 min
Bit rate                                 : 58.5 kb/s
Count of elements                        : 2342
Stream size                              : 36.1 MiB (0%)
Title                                    : SDH
Language                                 : English
Default                                  : No
Forced                                   : No

Text #3
ID                                       : 7
Format                                   : PGS
Codec ID                                 : S_HDMV/PGS
Codec ID/Info                            : Picture based subtitle format used on BDs/HD-DVDs
Duration                                 : 1 h 20 min
Bit rate                                 : 44.1 kb/s
Count of elements                        : 1506
Stream size                              : 25.3 MiB (0%)
Language                                 : Danish
Default                                  : No
Forced                                   : No

Text #4
ID                                       : 8
Format                                   : PGS
Codec ID                                 : S_HDMV/PGS
Codec ID/Info                            : Picture based subtitle format used on BDs/HD-DVDs
Duration                                 : 1 h 20 min
Bit rate                                 : 43.0 kb/s
Count of elements                        : 1542
Stream size                              : 24.7 MiB (0%)
Language                                 : Dutch
Default                                  : No
Forced                                   : No

Text #5
ID                                       : 9
Format                                   : PGS
Codec ID                                 : S_HDMV/PGS
Codec ID/Info                            : Picture based subtitle format used on BDs/HD-DVDs
Duration                                 : 1 h 20 min
Bit rate                                 : 38.1 kb/s
Count of elements                        : 1460
Stream size                              : 21.9 MiB (0%)
Language                                 : Finnish
Default                                  : No
Forced                                   : No

Text #6
ID                                       : 10
Format                                   : PGS
Codec ID                                 : S_HDMV/PGS
Codec ID/Info                            : Picture based subtitle format used on BDs/HD-DVDs
Duration                                 : 1 h 25 min
Bit rate                                 : 39.5 kb/s
Count of elements                        : 1756
Stream size                              : 24.3 MiB (0%)
Language                                 : French
Default                                  : No
Forced                                   : No

Text #7
ID                                       : 11
Format                                   : PGS
Codec ID                                 : S_HDMV/PGS
Codec ID/Info                            : Picture based subtitle format used on BDs/HD-DVDs
Duration                                 : 1 h 20 min
Bit rate                                 : 58.6 kb/s
Count of elements                        : 1834
Stream size                              : 33.6 MiB (0%)
Language                                 : German
Default                                  : No
Forced                                   : No

Text #8
ID                                       : 12
Format                                   : PGS
Codec ID                                 : S_HDMV/PGS
Codec ID/Info                            : Picture based subtitle format used on BDs/HD-DVDs
Duration                                 : 1 h 20 min
Bit rate                                 : 65.5 kb/s
Count of elements                        : 2026
Stream size                              : 37.8 MiB (0%)
Title                                    : SDH
Language                                 : German
Default                                  : No
Forced                                   : No

Text #9
ID                                       : 13
Format                                   : PGS
Codec ID                                 : S_HDMV/PGS
Codec ID/Info                            : Picture based subtitle format used on BDs/HD-DVDs
Duration                                 : 1 h 20 min
Bit rate                                 : 47.9 kb/s
Count of elements                        : 1712
Stream size                              : 27.5 MiB (0%)
Language                                 : Italian
Default                                  : No
Forced                                   : No

Text #10
ID                                       : 14
Format                                   : PGS
Codec ID                                 : S_HDMV/PGS
Codec ID/Info                            : Picture based subtitle format used on BDs/HD-DVDs
Duration                                 : 1 h 20 min
Bit rate                                 : 58.0 kb/s
Count of elements                        : 2002
Stream size                              : 33.5 MiB (0%)
Title                                    : SDH
Language                                 : Italian
Default                                  : No
Forced                                   : No

Text #11
ID                                       : 15
Format                                   : PGS
Codec ID                                 : S_HDMV/PGS
Codec ID/Info                            : Picture based subtitle format used on BDs/HD-DVDs
Duration                                 : 1 h 20 min
Bit rate                                 : 48.4 kb/s
Count of elements                        : 1710
Stream size                              : 27.8 MiB (0%)
Language                                 : Norwegian
Default                                  : No
Forced                                   : No

Text #12
ID                                       : 16
Format                                   : PGS
Codec ID                                 : S_HDMV/PGS
Codec ID/Info                            : Picture based subtitle format used on BDs/HD-DVDs
Duration                                 : 1 h 20 min
Bit rate                                 : 49.7 kb/s
Count of elements                        : 1988
Stream size                              : 28.5 MiB (0%)
Language                                 : Spanish
Default                                  : No
Forced                                   : No

Text #13
ID                                       : 17
Format                                   : PGS
Codec ID                                 : S_HDMV/PGS
Codec ID/Info                            : Picture based subtitle format used on BDs/HD-DVDs
Duration                                 : 1 h 20 min
Bit rate                                 : 43.7 kb/s
Count of elements                        : 1488
Stream size                              : 25.1 MiB (0%)
Language                                 : Swedish
Default                                  : No
Forced                                   : No

Menu
00:00:00.000                             : en:Chapter 1
00:07:39.959                             : en:Chapter 2
00:14:59.273                             : en:Chapter 3
00:24:42.564                             : en:Chapter 4
00:31:32.641                             : en:Chapter 5
00:37:28.830                             : en:Chapter 6
00:45:36.776                             : en:Chapter 7
00:52:45.621                             : en:Chapter 8
00:58:35.512                             : en:Chapter 9
01:04:21.107                             : en:Chapter 10
01:10:58.129                             : en:Chapter 11
01:15:18.931                             : en:Chapter 12

avatar
resplandor
Novato Pro
Novato Pro

Mensajes : 284
Fecha de inscripción : 12/07/2015

Volver arriba Ir abajo

Re: Scooby-Doo (The Movie)[2002][5.1][AC3][MEGA][LATINO]

Mensaje por negro12345 el Vie Ene 26, 2018 12:39 am

no se puede descargar

negro12345
Novato
Novato

Mensajes : 24
Fecha de inscripción : 02/09/2017

Volver arriba Ir abajo

Re: Scooby-Doo (The Movie)[2002][5.1][AC3][MEGA][LATINO]

Mensaje por djorbal el Jue Feb 15, 2018 11:50 am

gracias

djorbal
Novato
Novato

Mensajes : 50
Fecha de inscripción : 19/03/2016

Volver arriba Ir abajo

Re: Scooby-Doo (The Movie)[2002][5.1][AC3][MEGA][LATINO]

Mensaje por enriquefdzal el Miér Mar 07, 2018 6:03 pm

gracias

enriquefdzal
Novato
Novato

Mensajes : 18
Fecha de inscripción : 16/12/2014

Volver arriba Ir abajo

Re: Scooby-Doo (The Movie)[2002][5.1][AC3][MEGA][LATINO]

Mensaje por androidcuba el Sáb Mar 10, 2018 8:48 am

gracias!!!

androidcuba
Novato
Novato

Mensajes : 22
Fecha de inscripción : 24/02/2017

Volver arriba Ir abajo

Re: Scooby-Doo (The Movie)[2002][5.1][AC3][MEGA][LATINO]

Mensaje por Contenido patrocinado


Contenido patrocinado


Volver arriba Ir abajo

Volver arriba

- Temas similares

 
Permisos de este foro:
No puedes responder a temas en este foro.