DINOSAUR ISLAND - LA ISLA DE LOS DINOSAURIOS [2014][MP3][2.0][MEGA][LATINO]

Ver el tema anterior Ver el tema siguiente Ir abajo

DINOSAUR ISLAND - LA ISLA DE LOS DINOSAURIOS [2014][MP3][2.0][MEGA][LATINO]

Mensaje por Registro23 el Dom Mar 20, 2016 6:24 pm

La Isla de los Dinosaurios 2014 Latino



Código:
Format...........................: MP3
Duration.........................: 1h 22m 45s
Bit rate.........................: 128 Kbps
Sampling rate....................: 44.1 KHz
Channel(s).......................: 2 channels
File size........................: 75 MB
Frames per second................: 23,976

Link:
[Tienes que estar registrado y conectado para ver este vínculo]

Delay: -8300

Registro23
Novato
Novato

Mensajes : 14
Fecha de inscripción : 25/02/2016

Volver arriba Ir abajo

Re: DINOSAUR ISLAND - LA ISLA DE LOS DINOSAURIOS [2014][MP3][2.0][MEGA][LATINO]

Mensaje por Trebol el Dom Mar 20, 2016 9:00 pm

¡¡¡Muchísimas gracias!!!

Trebol
Novato Pro
Novato Pro

Mensajes : 183
Fecha de inscripción : 06/03/2015

Volver arriba Ir abajo

Re: DINOSAUR ISLAND - LA ISLA DE LOS DINOSAURIOS [2014][MP3][2.0][MEGA][LATINO]

Mensaje por fatima50 el Miér Mar 23, 2016 3:33 pm

gracias

fatima50
Novato
Novato

Mensajes : 28
Fecha de inscripción : 22/06/2015

Volver arriba Ir abajo

Re: DINOSAUR ISLAND - LA ISLA DE LOS DINOSAURIOS [2014][MP3][2.0][MEGA][LATINO]

Mensaje por grvc22 el Jue Mar 31, 2016 7:48 am

Gracias, parece entretenida la pelicula.
avatar
grvc22
Novato Pro
Novato Pro

Mensajes : 350
Fecha de inscripción : 03/06/2013
Edad : 30
Localización : El Salvador

Volver arriba Ir abajo

Re: DINOSAUR ISLAND - LA ISLA DE LOS DINOSAURIOS [2014][MP3][2.0][MEGA][LATINO]

Mensaje por resplandor el Sáb Ago 06, 2016 10:24 pm

Gracias!
Funciona perfecto para Dinosaur.Island.2014.1080p.BluRay.x264.DTS-RARBG

Código:
General
Unique ID                                : 173772537779417204464108744926206207756 (0x82BB5F974898777ABD4E16FD6F65A70C)
Complete name                            : Dinosaur.Island.2014.1080p.BluRay.x264.DTS-RARBG.mkv
Format                                  : Matroska
Format version                          : Version 4 / Version 2
File size                                : 7.28 GiB
Duration                                : 1h 23mn
Overall bit rate                        : 12.6 Mbps
Movie name                              : RARBG.COM - Dinosaur.Island.2014.1080p.BluRay.x264.DTS-RARBG
Encoded date                            : UTC 2015-06-28 11:42:55
Writing application                      : mkvmerge v8.1.0 ('Psychedelic Postcard') 64bit
Writing library                          : libebml v1.3.1 + libmatroska v1.4.2

Video
ID                                      : 1
Format                                  : AVC
Format/Info                              : Advanced Video Codec
Format profile                          : High@L4.1
Format settings, CABAC                  : Yes
Format settings, ReFrames                : 4 frames
Codec ID                                : V_MPEG4/ISO/AVC
Duration                                : 1h 23mn
Bit rate                                : 10.8 Mbps
Nominal bit rate                        : 11.5 Mbps
Width                                    : 1 920 pixels
Height                                  : 1 080 pixels
Display aspect ratio                    : 16:9
Frame rate mode                          : Constant
Frame rate                              : 23.976 (24000/1001) fps
Color space                              : YUV
Chroma subsampling                      : 4:2:0
Bit depth                                : 8 bits
Scan type                                : Progressive
Bits/(Pixel*Frame)                      : 0.217
Stream size                              : 6.26 GiB (86%)
Title                                    : Dinosaur.Island.2014.1080p.BluRay.x264.DTS-RARBG
Writing library                          : x264 core 142 r2495 6a301b6
Encoding settings                        : cabac=1 / ref=4 / deblock=1:-2:-2 / analyse=0x3:0x113 / me=umh / subme=7 / psy=1 / psy_rd=1.00:0.15 / mixed_ref=1 / me_range=16 / chroma_me=1 / trellis=1 / 8x8dct=1 / cqm=0 / deadzone=21,11 / fast_pskip=1 / chroma_qp_offset=-3 / threads=12 / lookahead_threads=3 / sliced_threads=0 / nr=0 / decimate=1 / interlaced=0 / bluray_compat=0 / constrained_intra=0 / bframes=3 / b_pyramid=2 / b_adapt=2 / b_bias=0 / direct=3 / weightb=1 / open_gop=0 / weightp=2 / keyint=250 / keyint_min=25 / scenecut=40 / intra_refresh=0 / rc_lookahead=50 / rc=abr / mbtree=1 / bitrate=11500 / ratetol=1.0 / qcomp=0.60 / qpmin=0 / qpmax=69 / qpstep=4 / vbv_maxrate=31250 / vbv_bufsize=31250 / nal_hrd=none / filler=0 / ip_ratio=1.40 / aq=1:1.00
Language                                : English
Default                                  : Yes
Forced                                  : No

Audio
ID                                      : 2
Format                                  : DTS
Format/Info                              : Digital Theater Systems
Mode                                    : 16
Format settings, Endianness              : Big
Codec ID                                : A_DTS
Duration                                : 1h 23mn
Bit rate mode                            : Constant
Bit rate                                : 1 509 Kbps
Channel(s)                              : 6 channels
Channel positions                        : Front: L C R, Side: L R, LFE
Sampling rate                            : 48.0 KHz
Frame rate                              : 93.750 fps (512 spf)
Bit depth                                : 16 bits
Compression mode                        : Lossy
Stream size                              : 896 MiB (12%)
Title                                    : Dinosaur.Island.2014.1080p.BluRay.x264.DTS-RARBG
Language                                : English
Default                                  : Yes
Forced                                  : No

Menu
00:00:00.000                            : en:Chapter 01
00:07:09.220                            : en:Chapter 02
00:11:38.531                            : en:Chapter 03
00:20:39.071                            : en:Chapter 04
00:27:03.913                            : en:Chapter 05
00:33:10.446                            : en:Chapter 06
00:41:58.474                            : en:Chapter 07
00:50:40.120                            : en:Chapter 08
00:56:27.967                            : en:Chapter 09
01:04:33.995                            : en:Chapter 10
01:10:38.192                            : en:Chapter 11
01:15:36.323                            : en:Chapter 12

avatar
resplandor
Novato Pro
Novato Pro

Mensajes : 258
Fecha de inscripción : 12/07/2015

Volver arriba Ir abajo

Re: DINOSAUR ISLAND - LA ISLA DE LOS DINOSAURIOS [2014][MP3][2.0][MEGA][LATINO]

Mensaje por roland67 el Mar Ago 08, 2017 8:05 am

Gracias

roland67
Novato
Novato

Mensajes : 78
Fecha de inscripción : 18/10/2015

Volver arriba Ir abajo

Re: DINOSAUR ISLAND - LA ISLA DE LOS DINOSAURIOS [2014][MP3][2.0][MEGA][LATINO]

Mensaje por Contenido patrocinado


Contenido patrocinado


Volver arriba Ir abajo

Ver el tema anterior Ver el tema siguiente Volver arriba

- Temas similares

 
Permisos de este foro:
No puedes responder a temas en este foro.