Arrival - La Llegada [2016][AC3][5.1][MULTI][LATINO]

Página 2 de 3. Precedente  1, 2, 3  Siguiente

Ver el tema anterior Ver el tema siguiente Ir abajo

Re: Arrival - La Llegada [2016][AC3][5.1][MULTI][LATINO]

Mensaje por Hildor el Vie Feb 03, 2017 11:49 pm

Muchísimas Gracias por Compartir.

Hildor
Novato
Novato

Mensajes : 56
Fecha de inscripción : 06/12/2016

Volver arriba Ir abajo

Re: Arrival - La Llegada [2016][AC3][5.1][MULTI][LATINO]

Mensaje por jeepers81 el Sáb Feb 04, 2017 6:19 am

gracias descargando, todo bien
avatar
jeepers81
Novato
Novato

Mensajes : 45
Fecha de inscripción : 03/09/2016
Edad : 42
Localización : Madrid, España

Volver arriba Ir abajo

a ti brother

Mensaje por baltazar el Sáb Feb 04, 2017 8:32 am

Nomakito escribió:
Shano escribió:Hola a todos, si al principio es un poco problemático, pero intentándolo un par de veces se puede descargar. Veremos como va.

Finalmente lo pude descargar y descomprimir luego de 5 intentos...

el delay es de -1000 para los que lo remuxean con mkvtoolnix...

gracias por el aporte...

saludos.

graciaspor avisar el delay es que me lleva varios dias encontrarlo al no hablar el ingles..mi hija agus te envia muchos besos
avatar
baltazar
Novato
Novato

Mensajes : 49
Fecha de inscripción : 15/02/2015
Edad : 52
Localización : buenos aires - Argentina

Volver arriba Ir abajo

Re: Arrival - La Llegada [2016][AC3][5.1][MULTI][LATINO]

Mensaje por cesarcl el Sáb Feb 04, 2017 9:24 am

Sincroniza con:
Arrival.2016.1080p.BluRay.x264-SPARKS[rarbg]
sin delay
avatar
cesarcl
Moderador
Moderador

Mensajes : 3002
Fecha de inscripción : 06/03/2014

Volver arriba Ir abajo

Re: Arrival - La Llegada [2016][AC3][5.1][MULTI][LATINO]

Mensaje por danicof el Sáb Feb 04, 2017 12:08 pm

pero links mas malos... no pude descargar bn... de todas formas gracias

danicof
Novato Pro
Novato Pro

Mensajes : 154
Fecha de inscripción : 26/02/2015

Volver arriba Ir abajo

Re: Arrival - La Llegada [2016][AC3][5.1][MULTI][LATINO]

Mensaje por cesarcl el Sáb Feb 04, 2017 12:11 pm

danicof escribió:pero links mas malos... no pude descargar bn... de todas formas gracias

Los links están bien ¿Por qué no puedes descargar?
avatar
cesarcl
Moderador
Moderador

Mensajes : 3002
Fecha de inscripción : 06/03/2014

Volver arriba Ir abajo

Re: Arrival - La Llegada [2016][AC3][5.1][MULTI][LATINO]

Mensaje por zaabon_70 el Sáb Feb 04, 2017 7:16 pm

cesarcl escribió:Sincroniza con:
Arrival.2016.1080p.BluRay.x264-SPARKS[rarbg]
sin delay

Gracias,impecable!
avatar
zaabon_70
Novato
Novato

Mensajes : 63
Fecha de inscripción : 21/10/2014

Volver arriba Ir abajo

No se puede descomprimir

Mensaje por hunter240384 el Sáb Feb 04, 2017 8:24 pm

Lo siento amigo, lo descargué, pero al intentar descomprimir me da error, descargué la m13rd4 esa de 7-zip y nada, o tal vez no se usarla... en fin que no se puede.

hunter240384
Novato
Novato

Mensajes : 13
Fecha de inscripción : 18/05/2016

Volver arriba Ir abajo

Re: Arrival - La Llegada [2016][AC3][5.1][MULTI][LATINO]

Mensaje por jimm_j el Sáb Feb 04, 2017 8:43 pm

Muchas gracias!!!

jimm_j
Novato
Novato

Mensajes : 14
Fecha de inscripción : 30/11/2014

Volver arriba Ir abajo

Re: Arrival - La Llegada [2016][AC3][5.1][MULTI][LATINO]

Mensaje por danicof el Sáb Feb 04, 2017 10:25 pm

descargue desde el primer link y todo ok! muchas gracias shano, un poco de lento en velocidad el enlace pero tod ok!

danicof
Novato Pro
Novato Pro

Mensajes : 154
Fecha de inscripción : 26/02/2015

Volver arriba Ir abajo

Re: Arrival - La Llegada [2016][AC3][5.1][MULTI][LATINO]

Mensaje por carlos6 el Dom Feb 05, 2017 12:45 am

gracias

carlos6
Novato
Novato

Mensajes : 6
Fecha de inscripción : 10/12/2016

Volver arriba Ir abajo

Re: Arrival - La Llegada [2016][AC3][5.1][MULTI][LATINO]

Mensaje por resplandor el Lun Feb 06, 2017 7:20 am

Gracias! Funciona para Arrival.2016.1080p.BluRay.x264-SPARKS

Código:
General
Unique ID                                : 222649252900779475674649913623395406440 (0xA780AFB30A9CBD989005C42B94539268)
Complete name                            : Arrival.2016.1080p.BluRay.x264-SPARKS.mkv
Format                                  : Matroska
Format version                          : Version 4 / Version 2
File size                                : 8.75 GiB
Duration                                : 1 h 56 min
Overall bit rate                        : 10.8 Mb/s
Encoded date                            : UTC 2017-01-31 23:48:44
Writing application                      : mkvmerge v8.3.0 ('Over the Horizon') 64bit
Writing library                          : libebml v1.3.1 + libmatroska v1.4.2

Video
ID                                      : 1
Format                                  : AVC
Format/Info                              : Advanced Video Codec
Format profile                          : High@L4.1
Format settings, CABAC                  : Yes
Format settings, ReFrames                : 5 frames
Codec ID                                : V_MPEG4/ISO/AVC
Duration                                : 1 h 56 min
Bit rate                                : 9 248 kb/s
Width                                    : 1 920 pixels
Height                                  : 808 pixels
Display aspect ratio                    : 2.40:1
Frame rate mode                          : Constant
Frame rate                              : 23.976 FPS
Color space                              : YUV
Chroma subsampling                      : 4:2:0
Bit depth                                : 8 bits
Scan type                                : Progressive
Bits/(Pixel*Frame)                      : 0.249
Stream size                              : 7.52 GiB (86%)
Writing library                          : x264 core 148 r2744 b97ae06
Encoding settings                        : cabac=1 / ref=5 / deblock=1:0:0 / analyse=0x3:0x133 / me=umh / subme=7 / psy=1 / psy_rd=1.00:0.00 / mixed_ref=1 / me_range=16 / chroma_me=1 / trellis=1 / 8x8dct=1 / cqm=0 / deadzone=21,11 / fast_pskip=0 / chroma_qp_offset=-2 / threads=25 / lookahead_threads=4 / sliced_threads=0 / nr=0 / decimate=1 / interlaced=0 / bluray_compat=0 / constrained_intra=0 / bframes=3 / b_pyramid=2 / b_adapt=1 / b_bias=0 / direct=1 / weightb=1 / open_gop=0 / weightp=2 / keyint=250 / keyint_min=23 / scenecut=40 / intra_refresh=0 / rc_lookahead=40 / rc=2pass / mbtree=1 / bitrate=9248 / ratetol=1.0 / qcomp=0.60 / qpmin=0 / qpmax=69 / qpstep=4 / cplxblur=20.0 / qblur=0.5 / ip_ratio=1.40 / aq=1:1.00
Language                                : English
Default                                  : Yes
Forced                                  : No

Audio
ID                                      : 2
Format                                  : DTS
Format/Info                              : Digital Theater Systems
Mode                                    : 16
Format settings, Endianness              : Big
Codec ID                                : A_DTS
Duration                                : 1 h 56 min
Bit rate mode                            : Constant
Bit rate                                : 1 509 kb/s
Channel(s)                              : 6 channels
Channel positions                        : Front: L C R, Side: L R, LFE
Sampling rate                            : 48.0 kHz
Frame rate                              : 93.750 FPS (512 spf)
Bit depth                                : 24 bits
Compression mode                        : Lossy
Stream size                              : 1.23 GiB (14%)
Language                                : English
Default                                  : Yes
Forced                                  : No

Menu
00:00:00.000                            : en:00:00:00.000
00:09:49.923                            : en:00:09:49.923
00:17:33.552                            : en:00:17:33.552
00:23:28.282                            : en:00:23:28.282
00:33:54.157                            : en:00:33:54.157
00:41:01.709                            : en:00:41:01.709
00:52:26.101                            : en:00:52:26.101
00:57:34.576                            : en:00:57:34.576
01:03:06.449                            : en:01:03:06.449
01:09:29.207                            : en:01:09:29.207
01:16:09.398                            : en:01:16:09.398
01:25:21.825                            : en:01:25:21.825
01:35:37.065                            : en:01:35:37.065
01:45:26.695                            : en:01:45:26.695

avatar
resplandor
Novato Pro
Novato Pro

Mensajes : 268
Fecha de inscripción : 12/07/2015

Volver arriba Ir abajo

Re: Arrival - La Llegada [2016][AC3][5.1][MULTI][LATINO]

Mensaje por resplandor el Lun Feb 06, 2017 8:27 pm

resplandor escribió:Gracias! Funciona para Arrival.2016.1080p.BluRay.DTS-HD.MA.7.1.x264-Manning

Código:
General
Unique ID                                : 233895535414635055236443081512123686415 (0xAFF6A43CB5A033EEA6F6DD6A183CDE0F)
Complete name                            : Arrival.2016.1080p.BluRay.DTS-HD.MA.7.1.x264-Manning.mkv
Format                                  : Matroska
Format version                          : Version 4 / Version 2
File size                                : 14.0 GiB
Duration                                : 1 h 56 min
Overall bit rate                        : 17.2 Mb/s
Movie name                              : Manning
Encoded date                            : UTC 2017-02-04 16:04:08
Writing application                      : mkvmerge v8.0.0 ('Til The Day That I Die') 32bit
Writing library                          : libebml v1.3.1 + libmatroska v1.4.2

Video
ID                                      : 1
Format                                  : AVC
Format/Info                              : Advanced Video Codec
Format profile                          : High@L4.1
Format settings, CABAC                  : Yes
Format settings, ReFrames                : 5 frames
Codec ID                                : V_MPEG4/ISO/AVC
Duration                                : 1 h 56 min
Bit rate                                : 13.0 Mb/s
Width                                    : 1 920 pixels
Height                                  : 804 pixels
Display aspect ratio                    : 2.40:1
Frame rate mode                          : Constant
Frame rate                              : 23.976 FPS
Color space                              : YUV
Chroma subsampling                      : 4:2:0
Bit depth                                : 8 bits
Scan type                                : Progressive
Bits/(Pixel*Frame)                      : 0.351
Stream size                              : 10.6 GiB (75%)
Writing library                          : x264 core 148 r2708 86b7198
Encoding settings                        : cabac=1 / ref=5 / deblock=1:0:0 / analyse=0x3:0x113 / me=umh / subme=8 / psy=1 / psy_rd=1.00:0.00 / mixed_ref=1 / me_range=16 / chroma_me=1 / trellis=1 / 8x8dct=1 / cqm=0 / deadzone=21,11 / fast_pskip=1 / chroma_qp_offset=-2 / threads=6 / lookahead_threads=1 / sliced_threads=0 / nr=0 / decimate=1 / interlaced=0 / bluray_compat=0 / constrained_intra=0 / bframes=3 / b_pyramid=2 / b_adapt=2 / b_bias=0 / direct=3 / weightb=1 / open_gop=0 / weightp=2 / keyint=240 / keyint_min=24 / scenecut=40 / intra_refresh=0 / rc_lookahead=50 / rc=2pass / mbtree=1 / bitrate=13000 / ratetol=1.0 / qcomp=0.60 / qpmin=0 / qpmax=69 / qpstep=4 / cplxblur=20.0 / qblur=0.5 / vbv_maxrate=62500 / vbv_bufsize=78125 / nal_hrd=none / filler=0 / ip_ratio=1.40 / aq=1:1.00
Default                                  : Yes
Forced                                  : No
Color range                              : Limited
Color primaries                          : BT.709
Transfer characteristics                : BT.709
Matrix coefficients                      : BT.709

Audio
ID                                      : 2
Format                                  : DTS
Format/Info                              : Digital Theater Systems
Format profile                          : MA / Core
Mode                                    : 16
Format settings, Endianness              : Big
Codec ID                                : A_DTS
Duration                                : 1 h 56 min
Bit rate mode                            : Variable / Constant
Bit rate                                : 4 207 kb/s / 1 509 kb/s
Channel(s)                              : 8 channels / 6 channels
Channel positions                        : Front: L C R, Side: L R, Back: L R, LFE / Front: L C R, Side: L R, LFE
Sampling rate                            : 48.0 kHz
Frame rate                              : 93.750 FPS (512 spf)
Bit depth                                : 24 bits
Compression mode                        : Lossless / Lossy
Stream size                              : 3.42 GiB (24%)
Default                                  : Yes
Forced                                  : No

Text #1
ID                                      : 3
Format                                  : PGS
Muxing mode                              : zlib
Codec ID                                : S_HDMV/PGS
Codec ID/Info                            : Picture based subtitle format used on BDs/HD-DVDs
Duration                                : 1 h 48 min
Bit rate                                : 10.3 kb/s
Count of elements                        : 2444
Stream size                              : 8.00 MiB (0%)
Default                                  : Yes
Forced                                  : No

Text #2
ID                                      : 4
Format                                  : PGS
Muxing mode                              : zlib
Codec ID                                : S_HDMV/PGS
Codec ID/Info                            : Picture based subtitle format used on BDs/HD-DVDs
Duration                                : 1 h 48 min
Bit rate                                : 11.7 kb/s
Count of elements                        : 2878
Stream size                              : 9.12 MiB (0%)
Default                                  : No
Forced                                  : No


avatar
resplandor
Novato Pro
Novato Pro

Mensajes : 268
Fecha de inscripción : 12/07/2015

Volver arriba Ir abajo

Re: Arrival - La Llegada [2016][AC3][5.1][MULTI][LATINO]

Mensaje por resplandor el Lun Feb 06, 2017 8:27 pm

Gracias! Funciona para Arrival.2016.1080p.BluRay.DTS-HD.MA.7.1.x264-Manning

Código:
General
Unique ID                                : 233895535414635055236443081512123686415 (0xAFF6A43CB5A033EEA6F6DD6A183CDE0F)
Complete name                            : Arrival.2016.1080p.BluRay.DTS-HD.MA.7.1.x264-Manning.mkv
Format                                   : Matroska
Format version                           : Version 4 / Version 2
File size                                : 14.0 GiB
Duration                                 : 1 h 56 min
Overall bit rate                         : 17.2 Mb/s
Movie name                               : Manning
Encoded date                             : UTC 2017-02-04 16:04:08
Writing application                      : mkvmerge v8.0.0 ('Til The Day That I Die') 32bit
Writing library                          : libebml v1.3.1 + libmatroska v1.4.2

Video
ID                                       : 1
Format                                   : AVC
Format/Info                              : Advanced Video Codec
Format profile                           : High@L4.1
Format settings, CABAC                   : Yes
Format settings, ReFrames                : 5 frames
Codec ID                                 : V_MPEG4/ISO/AVC
Duration                                 : 1 h 56 min
Bit rate                                 : 13.0 Mb/s
Width                                    : 1 920 pixels
Height                                   : 804 pixels
Display aspect ratio                     : 2.40:1
Frame rate mode                          : Constant
Frame rate                               : 23.976 FPS
Color space                              : YUV
Chroma subsampling                       : 4:2:0
Bit depth                                : 8 bits
Scan type                                : Progressive
Bits/(Pixel*Frame)                       : 0.351
Stream size                              : 10.6 GiB (75%)
Writing library                          : x264 core 148 r2708 86b7198
Encoding settings                        : cabac=1 / ref=5 / deblock=1:0:0 / analyse=0x3:0x113 / me=umh / subme=8 / psy=1 / psy_rd=1.00:0.00 / mixed_ref=1 / me_range=16 / chroma_me=1 / trellis=1 / 8x8dct=1 / cqm=0 / deadzone=21,11 / fast_pskip=1 / chroma_qp_offset=-2 / threads=6 / lookahead_threads=1 / sliced_threads=0 / nr=0 / decimate=1 / interlaced=0 / bluray_compat=0 / constrained_intra=0 / bframes=3 / b_pyramid=2 / b_adapt=2 / b_bias=0 / direct=3 / weightb=1 / open_gop=0 / weightp=2 / keyint=240 / keyint_min=24 / scenecut=40 / intra_refresh=0 / rc_lookahead=50 / rc=2pass / mbtree=1 / bitrate=13000 / ratetol=1.0 / qcomp=0.60 / qpmin=0 / qpmax=69 / qpstep=4 / cplxblur=20.0 / qblur=0.5 / vbv_maxrate=62500 / vbv_bufsize=78125 / nal_hrd=none / filler=0 / ip_ratio=1.40 / aq=1:1.00
Default                                  : Yes
Forced                                   : No
Color range                              : Limited
Color primaries                          : BT.709
Transfer characteristics                 : BT.709
Matrix coefficients                      : BT.709

Audio
ID                                       : 2
Format                                   : DTS
Format/Info                              : Digital Theater Systems
Format profile                           : MA / Core
Mode                                     : 16
Format settings, Endianness              : Big
Codec ID                                 : A_DTS
Duration                                 : 1 h 56 min
Bit rate mode                            : Variable / Constant
Bit rate                                 : 4 207 kb/s / 1 509 kb/s
Channel(s)                               : 8 channels / 6 channels
Channel positions                        : Front: L C R, Side: L R, Back: L R, LFE / Front: L C R, Side: L R, LFE
Sampling rate                            : 48.0 kHz
Frame rate                               : 93.750 FPS (512 spf)
Bit depth                                : 24 bits
Compression mode                         : Lossless / Lossy
Stream size                              : 3.42 GiB (24%)
Default                                  : Yes
Forced                                   : No

Text #1
ID                                       : 3
Format                                   : PGS
Muxing mode                              : zlib
Codec ID                                 : S_HDMV/PGS
Codec ID/Info                            : Picture based subtitle format used on BDs/HD-DVDs
Duration                                 : 1 h 48 min
Bit rate                                 : 10.3 kb/s
Count of elements                        : 2444
Stream size                              : 8.00 MiB (0%)
Default                                  : Yes
Forced                                   : No

Text #2
ID                                       : 4
Format                                   : PGS
Muxing mode                              : zlib
Codec ID                                 : S_HDMV/PGS
Codec ID/Info                            : Picture based subtitle format used on BDs/HD-DVDs
Duration                                 : 1 h 48 min
Bit rate                                 : 11.7 kb/s
Count of elements                        : 2878
Stream size                              : 9.12 MiB (0%)
Default                                  : No
Forced                                   : No


avatar
resplandor
Novato Pro
Novato Pro

Mensajes : 268
Fecha de inscripción : 12/07/2015

Volver arriba Ir abajo

Re: Arrival - La Llegada [2016][AC3][5.1][MULTI][LATINO]

Mensaje por NEO CHECO el Mar Feb 07, 2017 10:16 pm

probare

NEO CHECO
Novato
Novato

Mensajes : 68
Fecha de inscripción : 12/03/2016

Volver arriba Ir abajo

Re: Arrival - La Llegada [2016][AC3][5.1][MULTI][LATINO]

Mensaje por Norbert el Miér Feb 08, 2017 12:38 am

garcias...

Norbert
Novato
Novato

Mensajes : 30
Fecha de inscripción : 21/08/2014

Volver arriba Ir abajo

Re: Arrival - La Llegada [2016][AC3][5.1][MULTI][LATINO]

Mensaje por miltus el Vie Feb 17, 2017 7:22 pm

Gracias!!!

miltus
Novato
Novato

Mensajes : 6
Fecha de inscripción : 30/05/2016

Volver arriba Ir abajo

Re: Arrival - La Llegada [2016][AC3][5.1][MULTI][LATINO]

Mensaje por jpinilla el Vie Feb 17, 2017 11:51 pm

Gracias

jpinilla
Novato
Novato

Mensajes : 60
Fecha de inscripción : 27/07/2015
Edad : 61
Localización : bogota

Volver arriba Ir abajo

Re: Arrival - La Llegada [2016][AC3][5.1][MULTI][LATINO]

Mensaje por baltazar el Lun Feb 20, 2017 12:36 pm

CREO QUE TODAVIA FUNCIONA !! GRACIAS,,!!
avatar
baltazar
Novato
Novato

Mensajes : 49
Fecha de inscripción : 15/02/2015
Edad : 52
Localización : buenos aires - Argentina

Volver arriba Ir abajo

Re: Arrival - La Llegada [2016][AC3][5.1][MULTI][LATINO]

Mensaje por BULLSANTOS el Mar Feb 21, 2017 10:03 pm

Muchas gracias por el audio

BULLSANTOS
Novato
Novato

Mensajes : 30
Fecha de inscripción : 14/07/2016

Volver arriba Ir abajo

Re: Arrival - La Llegada [2016][AC3][5.1][MULTI][LATINO]

Mensaje por JDaniel96 el Vie Feb 24, 2017 3:19 am

Very Happy Very Happy Very Happy Very Happy Very Happy

JDaniel96
Novato
Novato

Mensajes : 6
Fecha de inscripción : 19/01/2017

Volver arriba Ir abajo

Re: Arrival - La Llegada [2016][AC3][5.1][MULTI][LATINO]

Mensaje por NEO CHECO el Sáb Feb 25, 2017 3:29 pm

probaremos

NEO CHECO
Novato
Novato

Mensajes : 68
Fecha de inscripción : 12/03/2016

Volver arriba Ir abajo

Re: Arrival - La Llegada [2016][AC3][5.1][MULTI][LATINO]

Mensaje por merovingio66 el Sáb Feb 25, 2017 4:34 pm

Gracias por el aporte.

merovingio66
Novato
Novato

Mensajes : 29
Fecha de inscripción : 14/02/2015

Volver arriba Ir abajo

Re: Arrival - La Llegada [2016][AC3][5.1][MULTI][LATINO]

Mensaje por jhosephluis el Vie Mar 10, 2017 10:07 pm

gracias cuadró perfecto

jhosephluis
Novato
Novato

Mensajes : 21
Fecha de inscripción : 31/03/2016

Volver arriba Ir abajo

Re: Arrival - La Llegada [2016][AC3][5.1][MULTI][LATINO]

Mensaje por MrZooTV el Vie Mar 17, 2017 4:22 am

Lo estoy bajando del mirror. Gracias por compartir.
avatar
MrZooTV
Novato
Novato

Mensajes : 37
Fecha de inscripción : 29/04/2015

Volver arriba Ir abajo

Re: Arrival - La Llegada [2016][AC3][5.1][MULTI][LATINO]

Mensaje por Contenido patrocinado


Contenido patrocinado


Volver arriba Ir abajo

Página 2 de 3. Precedente  1, 2, 3  Siguiente

Ver el tema anterior Ver el tema siguiente Volver arriba

- Temas similares

 
Permisos de este foro:
No puedes responder a temas en este foro.