Aliados - Allied [2016][AC3][5.1][MEGA][Latino]

Ver el tema anterior Ver el tema siguiente Ir abajo

Aliados - Allied [2016][AC3][5.1][MEGA][Latino]

Mensaje por cesarcl el Mar Feb 21, 2017 5:37 am

Allied [2016]
Código:
Source...........................: BD
Format...........................: AC-3
Duration.........................: 2h 04m 35s
Bit rate.........................: 640 Kbps
Channel(s).......................: 6 channels
File size........................: 570 MB
Frames per second................: 23,976

Incluye subtítulos forzados SRT



links:
Si quieres ayudar a la página espera los 5 segundos
Desacarga aquí
PASS: audiosparapeliculas.foroa.org

Agradecer no cuesta nada
avatar
cesarcl
Moderador
Moderador

Mensajes : 2833
Fecha de inscripción : 06/03/2014

Volver arriba Ir abajo

Re: Aliados - Allied [2016][AC3][5.1][MEGA][Latino]

Mensaje por l0k02311 el Mar Feb 21, 2017 7:14 am

gracias

l0k02311
Novato Pro
Novato Pro

Mensajes : 165
Fecha de inscripción : 06/11/2016

Volver arriba Ir abajo

Re: Aliados - Allied [2016][AC3][5.1][MEGA][Latino]

Mensaje por Leoelduro el Mar Feb 21, 2017 8:03 pm

gracias Laughing

Leoelduro
Novato Avanzado
Novato Avanzado

Mensajes : 106
Fecha de inscripción : 06/10/2015

Volver arriba Ir abajo

Aliados - Allied [2016][AC3][5.1][MEGA][Latino]

Mensaje por MARC20 el Miér Feb 22, 2017 7:10 pm

MIL GRACIAS AMIGO !!

MARC20
Novato Pro
Novato Pro

Mensajes : 215
Fecha de inscripción : 22/02/2015

Volver arriba Ir abajo

Re: Aliados - Allied [2016][AC3][5.1][MEGA][Latino]

Mensaje por resplandor el Lun Feb 27, 2017 10:17 pm

Gracias! funciona para Allied.2016.1080p.BluRay.x264-SPARKS

Código:
General
Unique ID                                : 216296604571833373426619842116086179692 (0xA2B935F475D522D7949BFE321EACA76C)
Complete name                            : Allied.2016.1080p.BluRay.x264-SPARKS.mkv
Format                                  : Matroska
Format version                          : Version 4 / Version 2
File size                                : 8.74 GiB
Duration                                : 2 h 4 min
Overall bit rate                        : 10.0 Mb/s
Encoded date                            : UTC 2017-02-15 05:59:34
Writing application                      : mkvmerge v8.3.0 ('Over the Horizon') 64bit
Writing library                          : libebml v1.3.1 + libmatroska v1.4.2

Video
ID                                      : 1
Format                                  : AVC
Format/Info                              : Advanced Video Codec
Format profile                          : High@L4.1
Format settings, CABAC                  : Yes
Format settings, ReFrames                : 5 frames
Codec ID                                : V_MPEG4/ISO/AVC
Duration                                : 2 h 4 min
Bit rate                                : 8 540 kb/s
Width                                    : 1 920 pixels
Height                                  : 800 pixels
Display aspect ratio                    : 2.40:1
Frame rate mode                          : Constant
Frame rate                              : 23.976 FPS
Color space                              : YUV
Chroma subsampling                      : 4:2:0
Bit depth                                : 8 bits
Scan type                                : Progressive
Bits/(Pixel*Frame)                      : 0.232
Stream size                              : 7.43 GiB (85%)
Writing library                          : x264 core 148 r2744 b97ae06
Encoding settings                        : cabac=1 / ref=5 / deblock=1:0:0 / analyse=0x3:0x133 / me=umh / subme=7 / psy=1 / psy_rd=1.00:0.00 / mixed_ref=1 / me_range=16 / chroma_me=1 / trellis=1 / 8x8dct=1 / cqm=0 / deadzone=21,11 / fast_pskip=0 / chroma_qp_offset=-2 / threads=18 / lookahead_threads=3 / sliced_threads=0 / nr=0 / decimate=1 / interlaced=0 / bluray_compat=0 / constrained_intra=0 / bframes=3 / b_pyramid=2 / b_adapt=1 / b_bias=0 / direct=1 / weightb=1 / open_gop=0 / weightp=2 / keyint=250 / keyint_min=23 / scenecut=40 / intra_refresh=0 / rc_lookahead=40 / rc=2pass / mbtree=1 / bitrate=8540 / ratetol=1.0 / qcomp=0.60 / qpmin=0 / qpmax=69 / qpstep=4 / cplxblur=20.0 / qblur=0.5 / ip_ratio=1.40 / aq=1:1.00
Language                                : English
Default                                  : Yes
Forced                                  : No

Audio
ID                                      : 2
Format                                  : DTS
Format/Info                              : Digital Theater Systems
Mode                                    : 16
Format settings, Endianness              : Big
Codec ID                                : A_DTS
Duration                                : 2 h 4 min
Bit rate mode                            : Constant
Bit rate                                : 1 509 kb/s
Channel(s)                              : 6 channels
Channel positions                        : Front: L C R, Side: L R, LFE
Sampling rate                            : 48.0 kHz
Frame rate                              : 93.750 FPS (512 spf)
Bit depth                                : 24 bits
Compression mode                        : Lossy
Stream size                              : 1.31 GiB (15%)
Language                                : English
Default                                  : Yes
Forced                                  : No

Text
ID                                      : 3
Format                                  : UTF-8
Codec ID                                : S_TEXT/UTF8
Codec ID/Info                            : UTF-8 Plain Text
Duration                                : 1 h 33 min
Bit rate                                : 5 b/s
Count of elements                        : 142
Stream size                              : 3.80 KiB (0%)
Title                                    : English-Forced
Language                                : English
Default                                  : Yes
Forced                                  : Yes

Menu
00:00:00.000                            : en:00:00:00.000
00:05:38.088                            : en:00:05:38.088
00:16:39.749                            : en:00:16:39.749
00:24:31.428                            : en:00:24:31.428
00:33:52.280                            : en:00:33:52.280
00:43:07.543                            : en:00:43:07.543
00:49:14.118                            : en:00:49:14.118
01:01:39.321                            : en:01:01:39.321
01:09:36.339                            : en:01:09:36.339
01:16:44.016                            : en:01:16:44.016
01:26:14.961                            : en:01:26:14.961
01:31:53.466                            : en:01:31:53.466
01:40:12.173                            : en:01:40:12.173
01:47:25.105                            : en:01:47:25.105
01:56:35.614                            : en:01:56:35.614

avatar
resplandor
Novato Pro
Novato Pro

Mensajes : 250
Fecha de inscripción : 12/07/2015

Volver arriba Ir abajo

Re: Aliados - Allied [2016][AC3][5.1][MEGA][Latino]

Mensaje por luis alexis el Miér Mar 08, 2017 2:58 pm

gracias

luis alexis
Novato
Novato

Mensajes : 10
Fecha de inscripción : 27/02/2017

Volver arriba Ir abajo

Re: Aliados - Allied [2016][AC3][5.1][MEGA][Latino]

Mensaje por frederick819 el Sáb Mar 11, 2017 7:28 pm

Mil Gracias!!!!!!!!!!!!!!!!

frederick819
Novato
Novato

Mensajes : 18
Fecha de inscripción : 16/02/2015

Volver arriba Ir abajo

Re: Aliados - Allied [2016][AC3][5.1][MEGA][Latino]

Mensaje por chyru el Dom Mar 12, 2017 4:04 pm

muchas gracias

chyru
Novato
Novato

Mensajes : 48
Fecha de inscripción : 08/04/2016

Volver arriba Ir abajo

Re: Aliados - Allied [2016][AC3][5.1][MEGA][Latino]

Mensaje por ernesto1005 el Miér Mar 15, 2017 3:26 pm

Gracias

ernesto1005
Novato
Novato

Mensajes : 51
Fecha de inscripción : 30/09/2015

Volver arriba Ir abajo

Re: Aliados - Allied [2016][AC3][5.1][MEGA][Latino]

Mensaje por rafael1108 el Jue Mar 16, 2017 6:05 pm

gracias.

rafael1108
Novato
Novato

Mensajes : 2
Fecha de inscripción : 17/12/2016

Volver arriba Ir abajo

Re: Aliados - Allied [2016][AC3][5.1][MEGA][Latino]

Mensaje por jonatan1985 el Vie Mar 17, 2017 6:13 pm

Que buen aporte, gracias!

jonatan1985
Novato
Novato

Mensajes : 3
Fecha de inscripción : 03/09/2016

Volver arriba Ir abajo

Re: Aliados - Allied [2016][AC3][5.1][MEGA][Latino]

Mensaje por RODRIGORsj3 el Mar Abr 04, 2017 12:55 pm

muchas gracias.

RODRIGORsj3
Novato
Novato

Mensajes : 44
Fecha de inscripción : 30/12/2014

Volver arriba Ir abajo

Re: Aliados - Allied [2016][AC3][5.1][MEGA][Latino]

Mensaje por erbcrank el Miér Abr 12, 2017 10:11 am

grcias, buen aporte

erbcrank
Novato
Novato

Mensajes : 18
Fecha de inscripción : 17/02/2015

Volver arriba Ir abajo

Re: Aliados - Allied [2016][AC3][5.1][MEGA][Latino]

Mensaje por h@gro el Mar Mayo 16, 2017 3:02 pm

gracias!!

h@gro
Novato
Novato

Mensajes : 89
Fecha de inscripción : 25/02/2017

Volver arriba Ir abajo

Muchas gracias !!

Mensaje por SILVERMASK el Mar Ago 08, 2017 11:38 pm

cesarcl escribió:
Allied [2016]
Código:
Source...........................: BD
Format...........................: AC-3
Duration.........................: 2h 04m 35s
Bit rate.........................: 640 Kbps
Channel(s).......................: 6 channels
File size........................: 570 MB
Frames per second................: 23,976

Incluye subtítulos forzados SRT



links:
Si quieres ayudar a la página espera los 5 segundos
Desacarga aquí
PASS: audiosparapeliculas.foroa.org

Agradecer no cuesta nada

SILVERMASK
Novato
Novato

Mensajes : 28
Fecha de inscripción : 22/04/2014
Edad : 47

Volver arriba Ir abajo

Re: Aliados - Allied [2016][AC3][5.1][MEGA][Latino]

Mensaje por Contenido patrocinado


Contenido patrocinado


Volver arriba Ir abajo

Ver el tema anterior Ver el tema siguiente Volver arriba

- Temas similares

 
Permisos de este foro:
No puedes responder a temas en este foro.