Moonlight (Luz de luna) [2016][AC3][5.1][Latino][MEGA]

Ver el tema anterior Ver el tema siguiente Ir abajo

Moonlight (Luz de luna) [2016][AC3][5.1][Latino][MEGA]

Mensaje por terko el Vie Mayo 12, 2017 6:04 pm



Código:
Info/Audio
Formato...........................: AC-3
Duración................................:  1h  50min
Tasa de bits...........................: 640 kbps  
Canal(es)..............................: 6 canales
Velocidad de muestreo.................: 48.0 kHz
Tamaño de pista...........................: 508 MB (100%)

DESCARGA:
MEGA
contraseña: audiosparapeliculas.foroa.org

AGRADECER NO CUESTA NADA.... Wink


Última edición por terko el Sáb Jul 15, 2017 11:13 am, editado 3 veces
avatar
terko
Uploader
Uploader

Mensajes : 484
Fecha de inscripción : 05/04/2015
Localización : Narnia

Volver arriba Ir abajo

Re: Moonlight (Luz de luna) [2016][AC3][5.1][Latino][MEGA]

Mensaje por Shano el Vie Mayo 12, 2017 7:51 pm

Se agradece. Saludos.
avatar
Shano
Uploader
Uploader

Mensajes : 340
Fecha de inscripción : 26/12/2016
Localización : Asgard

Volver arriba Ir abajo

Re: Moonlight (Luz de luna) [2016][AC3][5.1][Latino][MEGA]

Mensaje por Ever64 el Vie Mayo 12, 2017 11:12 pm

Terko,
Buenas noches a ver si me pudieras ayudar mi problema es este: Casi en la mayoria de los links que trato de descargar no me aparece en mi laptop y recuro cuendo me pasa esto a la tablet pero ahora con los nuevos links que estan poniendo en el foro (descargar JDOWNLOADR o MIPONY) y mi problema es PRIMERO QUE MI LAP TOP CUANDO QUIERO DESCARGAR EL LINK LE PRESIONO DONDE DICE DESCARGAR Y NO APARECE NADA Y EN MI TABLET TIENE POCA MEMORIA Y YA TRATE DE BAJAR ESOS 2 PROGRAMAS Y NO AHI PARA ANDROID...
NOMAS QUISIERA SABER PORQUE AL PRESIONAR DONDE DICE DESCARGA Y NO APARECE NADA ??? Y YA LO INTENTE CON CHROME Y EXPLORER Y NADA...

Ever64
Novato
Novato

Mensajes : 91
Fecha de inscripción : 03/11/2016

Volver arriba Ir abajo

Re: Moonlight (Luz de luna) [2016][AC3][5.1][Latino][MEGA]

Mensaje por terko el Vie Mayo 12, 2017 11:55 pm

Ever64 escribió:Terko,
Buenas noches a ver si me pudieras ayudar mi problema es este: Casi en la mayoria de los links que trato de descargar no me aparece en mi laptop y recuro cuendo me pasa esto a la tablet pero ahora con los nuevos links que estan poniendo en el foro (descargar JDOWNLOADR o MIPONY) y mi problema es PRIMERO QUE MI LAP TOP CUANDO QUIERO DESCARGAR EL LINK LE PRESIONO DONDE DICE DESCARGAR Y NO APARECE NADA Y EN MI TABLET TIENE POCA MEMORIA Y YA TRATE DE BAJAR ESOS 2 PROGRAMAS Y NO AHI PARA ANDROID...
NOMAS QUISIERA SABER PORQUE AL PRESIONAR DONDE DICE DESCARGA Y NO APARECE NADA ??? Y YA LO INTENTE CON CHROME Y EXPLORER Y NADA...



buenas Ever64,
sobre lo de (descargar con JDOWNLOADR o MIPONY) no es mi caso... mis link son directos.... solo das a descarga se desplega una ventana que dise MEGA  le das clic encima de MEGA y te manda al link.... Question
avatar
terko
Uploader
Uploader

Mensajes : 484
Fecha de inscripción : 05/04/2015
Localización : Narnia

Volver arriba Ir abajo

Re: Moonlight (Luz de luna) [2016][AC3][5.1][Latino][MEGA]

Mensaje por pappo666 el Sáb Mayo 13, 2017 12:08 pm

Gracias!!!

Moonlight.2016.1080p.BluRay.x264-SPARKS - Sin Delay
avatar
pappo666
Novato
Novato

Mensajes : 93
Fecha de inscripción : 23/02/2015

Volver arriba Ir abajo

Re: Moonlight (Luz de luna) [2016][AC3][5.1][Latino][MEGA]

Mensaje por Checho2012 el Miér Mayo 17, 2017 1:18 am

Muchas gracias!!!!

Checho2012
Novato
Novato

Mensajes : 19
Fecha de inscripción : 20/05/2016

Volver arriba Ir abajo

Re: Moonlight (Luz de luna) [2016][AC3][5.1][Latino][MEGA]

Mensaje por resplandor el Vie Jun 16, 2017 11:38 pm

Gracias funciona para Moonlight.2016.1080p.BluRay.DD5.1.x264-VietHD
Código:
General
Unique ID                                : 243450089080888889554188037956587510470 (0xB726C81A6032D36CAE1385F406B85AC6)
Complete name                            : Moonlight.2016.1080p.BluRay.DD5.1.x264-VietHD.mkv
Format                                  : Matroska
Format version                          : Version 4 / Version 2
File size                                : 12.8 GiB
Duration                                : 1 h 50 min
Overall bit rate                        : 16.6 Mb/s
Encoded date                            : UTC 2017-02-19 14:13:00
Writing application                      : mkvmerge v9.7.1 ('Pandemonium') 64bit
Writing library                          : libebml v1.3.4 + libmatroska v1.4.5

Video
ID                                      : 6
Format                                  : AVC
Format/Info                              : Advanced Video Codec
Format profile                          : High@L4.1
Format settings, CABAC                  : Yes
Format settings, ReFrames                : 5 frames
Codec ID                                : V_MPEG4/ISO/AVC
Duration                                : 1 h 50 min
Bit rate                                : 15.7 Mb/s
Width                                    : 1 920 pixels
Height                                  : 808 pixels
Display aspect ratio                    : 2.40:1
Frame rate mode                          : Constant
Frame rate                              : 23.976 (24000/1001) FPS
Color space                              : YUV
Chroma subsampling                      : 4:2:0
Bit depth                                : 8 bits
Scan type                                : Progressive
Bits/(Pixel*Frame)                      : 0.422
Stream size                              : 12.2 GiB (95%)
Writing library                          : x264 core 148 r2744kMod b97ae06
Encoding settings                        : cabac=1 / ref=5 / deblock=1:-3:-3 / analyse=0x3:0x133 / me=umh / subme=10 / psy=1 / fade_compensate=0.00 / psy_rd=1.00:0.00 / mixed_ref=1 / me_range=24 / chroma_me=1 / trellis=2 / 8x8dct=1 / cqm=0 / deadzone=21,11 / fast_pskip=0 / chroma_qp_offset=-2 / threads=25 / lookahead_threads=4 / sliced_threads=0 / nr=0 / decimate=0 / interlaced=0 / bluray_compat=0 / constrained_intra=0 / bframes=8 / b_pyramid=2 / b_adapt=2 / b_bias=0 / direct=3 / weightb=1 / open_gop=0 / weightp=2 / keyint=250 / keyint_min=23 / scenecut=40 / intra_refresh=0 / rc_lookahead=60 / rc=2pass / mbtree=0 / bitrate=15700 / ratetol=1.0 / qcomp=0.60 / qpmin=0 / qpmax=69 / qpstep=4 / cplxblur=20.0 / qblur=0.5 / vbv_maxrate=62500 / vbv_bufsize=78125 / nal_hrd=none / filler=0 / ip_ratio=1.30 / pb_ratio=1.20 / aq=3:0.75
Language                                : English
Default                                  : Yes
Forced                                  : No
Color range                              : Limited
Matrix coefficients                      : BT.709

Audio #1
ID                                      : 1
Format                                  : AC-3
Format/Info                              : Audio Coding 3
Format settings, Endianness              : Big
Codec ID                                : A_AC3
Duration                                : 1 h 50 min
Bit rate mode                            : Constant
Bit rate                                : 640 kb/s
Channel(s)                              : 6 channels
Channel positions                        : Front: L C R, Side: L R, LFE
Sampling rate                            : 48.0 kHz
Frame rate                              : 31.250 FPS (1536 spf)
Bit depth                                : 16 bits
Compression mode                        : Lossy
Stream size                              : 508 MiB (4%)
Language                                : English
Service kind                            : Complete Main
Default                                  : Yes
Forced                                  : No

Audio #2
ID                                      : 2
Format                                  : AC-3
Format/Info                              : Audio Coding 3
Mode                                    : Dolby Digital
Format settings, Endianness              : Big
Codec ID                                : A_AC3
Duration                                : 1 h 50 min
Bit rate mode                            : Constant
Bit rate                                : 224 kb/s
Channel(s)                              : 2 channels
Channel positions                        : Front: L R
Sampling rate                            : 48.0 kHz
Frame rate                              : 31.250 FPS (1536 spf)
Bit depth                                : 16 bits
Compression mode                        : Lossy
Stream size                              : 178 MiB (1%)
Title                                    : Audio Commentary with Director Barry Jenkins.
Language                                : English
Service kind                            : Complete Main
Default                                  : No
Forced                                  : No

Text #1
ID                                      : 3
Format                                  : UTF-8
Codec ID                                : S_TEXT/UTF8
Codec ID/Info                            : UTF-8 Plain Text
Duration                                : 1 h 50 min
Bit rate                                : 40 b/s
Count of elements                        : 1120
Stream size                              : 33.0 KiB (0%)
Title                                    : SDH
Language                                : English
Default                                  : No
Forced                                  : No

Text #2
ID                                      : 4
Format                                  : UTF-8
Codec ID                                : S_TEXT/UTF8
Codec ID/Info                            : UTF-8 Plain Text
Duration                                : 1 h 43 min
Bit rate                                : 36 b/s
Count of elements                        : 927
Stream size                              : 28.0 KiB (0%)
Language                                : English
Default                                  : No
Forced                                  : No

Text #3
ID                                      : 5
Format                                  : UTF-8
Codec ID                                : S_TEXT/UTF8
Codec ID/Info                            : UTF-8 Plain Text
Duration                                : 1 h 44 min
Bit rate                                : 42 b/s
Count of elements                        : 876
Stream size                              : 32.9 KiB (0%)
Language                                : Vietnamese
Default                                  : No
Forced                                  : No

Menu
00:00:00.000                            : en:00:00:00.000
00:05:42.759                            : en:00:05:42.759
00:13:16.713                            : en:00:13:16.713
00:21:17.610                            : en:00:21:17.610
00:30:04.386                            : en:00:30:04.386
00:36:04.162                            : en:00:36:04.162
00:43:28.147                            : en:00:43:28.147
00:49:07.069                            : en:00:49:07.069
00:57:20.145                            : en:00:57:20.145
01:03:37.147                            : en:01:03:37.147
01:08:31.983                            : en:01:08:31.983
01:15:25.312                            : en:01:15:25.312
01:21:03.942                            : en:01:21:03.942
01:27:03.635                            : en:01:27:03.635
01:36:01.464                            : en:01:36:01.464
01:40:01.704                            : en:01:40:01.704

avatar
resplandor
Novato Pro
Novato Pro

Mensajes : 253
Fecha de inscripción : 12/07/2015

Volver arriba Ir abajo

Re: Moonlight (Luz de luna) [2016][AC3][5.1][Latino][MEGA]

Mensaje por cesarcl el Sáb Jul 15, 2017 2:41 am

Terko lo puedes resubir?
Gracias
avatar
cesarcl
Moderador
Moderador

Mensajes : 2856
Fecha de inscripción : 06/03/2014

Volver arriba Ir abajo

Re: Moonlight (Luz de luna) [2016][AC3][5.1][Latino][MEGA]

Mensaje por terko el Sáb Jul 15, 2017 7:17 am

cesarcl escribió:Terko lo puedes resubir?
Gracias


listo resubido
avatar
terko
Uploader
Uploader

Mensajes : 484
Fecha de inscripción : 05/04/2015
Localización : Narnia

Volver arriba Ir abajo

Re: Moonlight (Luz de luna) [2016][AC3][5.1][Latino][MEGA]

Mensaje por Leonn10 el Jue Jul 20, 2017 5:35 pm

Graciasss

Leonn10
Novato
Novato

Mensajes : 28
Fecha de inscripción : 13/07/2016

Volver arriba Ir abajo

Error al descomprimir

Mensaje por pablok3 el Sáb Jul 22, 2017 4:28 pm

Buenas! tira error al descomprimir el archivo. Podrán revisarlo?

pablok3
Novato
Novato

Mensajes : 2
Fecha de inscripción : 19/03/2017

Volver arriba Ir abajo

Anda perfecto!

Mensaje por pablok3 el Sáb Jul 22, 2017 4:30 pm

Error, anda de diez, lo bajé de nuevo. Gracias.-

pablok3
Novato
Novato

Mensajes : 2
Fecha de inscripción : 19/03/2017

Volver arriba Ir abajo

Re: Moonlight (Luz de luna) [2016][AC3][5.1][Latino][MEGA]

Mensaje por piterman88 el Dom Sep 17, 2017 1:24 am

AGRADECER NO CUESTA NADA....

piterman88
Novato
Novato

Mensajes : 5
Fecha de inscripción : 10/02/2017

Volver arriba Ir abajo

Re: Moonlight (Luz de luna) [2016][AC3][5.1][Latino][MEGA]

Mensaje por Contenido patrocinado


Contenido patrocinado


Volver arriba Ir abajo

Ver el tema anterior Ver el tema siguiente Volver arriba

- Temas similares

 
Permisos de este foro:
No puedes responder a temas en este foro.