Bone Tomahawk - Frontera Canibal [2015][AC3][2.0][MEGA|4SHARED][Audio Latino]

Página 1 de 2. 1, 2  Siguiente

Ver el tema anterior Ver el tema siguiente Ir abajo

Bone Tomahawk - Frontera Canibal [2015][AC3][2.0][MEGA|4SHARED][Audio Latino]

Mensaje por Reynier el Vie Mayo 12, 2017 11:26 pm


Código:

Audio
Format...........................: AC3
Duration.........................: 2 h 12 min
Bit rate.........................: 192 Kbps
Channel(s).......................: 2 channels
Sampling rate....................: 48.0 KHz
File size........................: 181 MB

Sincroniza con la version 1080p.BluRay-ROVERS con un delay de -300 ms.

Descarga:

Contenido oculto, debes responder para ver el contenido

Reynier
Novato
Novato

Mensajes : 32
Fecha de inscripción : 09/03/2017

Volver arriba Ir abajo

Re: Bone Tomahawk - Frontera Canibal [2015][AC3][2.0][MEGA|4SHARED][Audio Latino]

Mensaje por nandocr el Sáb Mayo 13, 2017 10:21 am

Smile Smile Smile

nandocr
Novato
Novato

Mensajes : 99
Fecha de inscripción : 20/07/2013

Volver arriba Ir abajo

Re: Bone Tomahawk - Frontera Canibal [2015][AC3][2.0][MEGA|4SHARED][Audio Latino]

Mensaje por sergio24 el Sáb Mayo 13, 2017 11:15 am

Muchas gracias!

sergio24
Novato Avanzado
Novato Avanzado

Mensajes : 114
Fecha de inscripción : 19/07/2014

Volver arriba Ir abajo

Re: Bone Tomahawk - Frontera Canibal [2015][AC3][2.0][MEGA|4SHARED][Audio Latino]

Mensaje por Ever64 el Sáb Mayo 13, 2017 11:34 am

Muchas gracias

Ever64
Novato Avanzado
Novato Avanzado

Mensajes : 144
Fecha de inscripción : 03/11/2016

Volver arriba Ir abajo

Re: Bone Tomahawk - Frontera Canibal [2015][AC3][2.0][MEGA|4SHARED][Audio Latino]

Mensaje por dannyrsb el Sáb Mayo 13, 2017 12:57 pm

gracias

dannyrsb
Novato
Novato

Mensajes : 18
Fecha de inscripción : 17/02/2015

Volver arriba Ir abajo

Re: Bone Tomahawk - Frontera Canibal [2015][AC3][2.0][MEGA|4SHARED][Audio Latino]

Mensaje por Alexandr0s el Sáb Mayo 13, 2017 1:52 pm

gracias, lo buscaba

Alexandr0s
Novato Avanzado
Novato Avanzado

Mensajes : 113
Fecha de inscripción : 01/06/2016

Volver arriba Ir abajo

Re: Bone Tomahawk - Frontera Canibal [2015][AC3][2.0][MEGA|4SHARED][Audio Latino]

Mensaje por MaxEvans el Sáb Mayo 13, 2017 5:27 pm

albino

MaxEvans
Novato
Novato

Mensajes : 79
Fecha de inscripción : 02/06/2015

Volver arriba Ir abajo

Re: Bone Tomahawk - Frontera Canibal [2015][AC3][2.0][MEGA|4SHARED][Audio Latino]

Mensaje por pappo666 el Sáb Mayo 13, 2017 5:44 pm

Gracias!!!
avatar
pappo666
Novato Avanzado
Novato Avanzado

Mensajes : 101
Fecha de inscripción : 23/02/2015

Volver arriba Ir abajo

Re: Bone Tomahawk - Frontera Canibal [2015][AC3][2.0][MEGA|4SHARED][Audio Latino]

Mensaje por stereo100 el Sáb Mayo 13, 2017 8:22 pm

Muchas Gracias.

stereo100
Novato
Novato

Mensajes : 98
Fecha de inscripción : 18/11/2016

Volver arriba Ir abajo

Re: Bone Tomahawk - Frontera Canibal [2015][AC3][2.0][MEGA|4SHARED][Audio Latino]

Mensaje por resplandor el Dom Mayo 14, 2017 10:13 am

Gracias funciona para Bone.Tomahawk.2015.BluRay.1080p.DTS.x264-PRoDJi
Delay: -300ms

Código:
General
Unique ID                                : 210428254472874425053341048483781925154 (0x9E4F01F4EBB8A711A7D7C8512855D922)
Complete name                            : Bone.Tomahawk.2015.BluRay.1080p.DTS.x264-PRoDJi.mkv
Format                                  : Matroska
Format version                          : Version 4 / Version 2
File size                                : 8.67 GiB
Duration                                : 2 h 12 min
Overall bit rate                        : 9 396 kb/s
Encoded date                            : UTC 2016-07-27 15:38:30
Writing application                      : mkvmerge v7.8.0 ('River Man') 32bit built on Mar 27 2015 16:18:02
Writing library                          : libebml v1.3.1 + libmatroska v1.4.2

Video
ID                                      : 1
Format                                  : AVC
Format/Info                              : Advanced Video Codec
Format profile                          : High@L4.1
Format settings, CABAC                  : Yes
Format settings, ReFrames                : 4 frames
Codec ID                                : V_MPEG4/ISO/AVC
Duration                                : 2 h 12 min
Bit rate                                : 7 691 kb/s
Width                                    : 1 920 pixels
Height                                  : 804 pixels
Display aspect ratio                    : 2.40:1
Frame rate mode                          : Constant
Frame rate                              : 23.976 (24000/1001) FPS
Color space                              : YUV
Chroma subsampling                      : 4:2:0
Bit depth                                : 8 bits
Scan type                                : Progressive
Bits/(Pixel*Frame)                      : 0.208
Stream size                              : 7.10 GiB (82%)
Title                                    : @7691 Kbps High Profiles @L4.1
Writing library                          : x264 core 148 r2638 7599210
Encoding settings                        : cabac=1 / ref=5 / deblock=1:-1:-1 / analyse=0x3:0x113 / me=umh / subme=9 / psy=1 / psy_rd=1.00:0.00 / mixed_ref=1 / me_range=24 / chroma_me=1 / trellis=2 / 8x8dct=1 / cqm=0 / deadzone=21,11 / fast_pskip=1 / chroma_qp_offset=-5 / threads=6 / lookahead_threads=1 / sliced_threads=0 / nr=0 / decimate=0 / interlaced=0 / bluray_compat=0 / constrained_intra=0 / bframes=5 / b_pyramid=1 / b_adapt=2 / b_bias=2 / direct=3 / weightb=1 / open_gop=0 / weightp=2 / keyint=230 / keyint_min=22 / scenecut=40 / intra_refresh=0 / rc_lookahead=45 / rc=2pass / mbtree=1 / bitrate=7691 / ratetol=1.0 / qcomp=0.60 / qpmin=10 / qpmax=41 / qpstep=4 / cplxblur=20.0 / qblur=0.5 / ip_ratio=1.30 / aq=1:1.00
Language                                : English
Default                                  : Yes
Forced                                  : No

Audio #1
ID                                      : 2
Format                                  : DTS
Format/Info                              : Digital Theater Systems
Mode                                    : 16
Format settings, Endianness              : Big
Codec ID                                : A_DTS
Duration                                : 2 h 12 min
Bit rate mode                            : Constant
Bit rate                                : 1 509 kb/s
Channel(s)                              : 6 channels
Channel positions                        : Front: L C R, Side: L R, LFE
Sampling rate                            : 48.0 kHz
Frame rate                              : 93.750 FPS (512 spf)
Bit depth                                : 24 bits
Compression mode                        : Lossy
Stream size                              : 1.39 GiB (16%)
Title                                    : DTS@1509Kbps 6 chnls
Language                                : English
Default                                  : Yes
Forced                                  : No

Audio #2
ID                                      : 3
Format                                  : AC-3
Format/Info                              : Audio Coding 3
Format settings, Endianness              : Big
Codec ID                                : A_AC3
Duration                                : 2 h 12 min
Bit rate mode                            : Constant
Bit rate                                : 192 kb/s
Channel(s)                              : 2 channels
Channel positions                        : Front: L R
Sampling rate                            : 48.0 kHz
Frame rate                              : 31.250 FPS (1536 spf)
Bit depth                                : 16 bits
Compression mode                        : Lossy
Stream size                              : 181 MiB (2%)
Title                                    : AC3@192Kbps 2 chnls
Language                                : Turkish
Service kind                            : Complete Main
Default                                  : No
Forced                                  : No

Text #1
ID                                      : 4
Format                                  : UTF-8
Codec ID                                : S_TEXT/UTF8
Codec ID/Info                            : UTF-8 Plain Text
Duration                                : 2 h 3 min
Bit rate                                : 40 b/s
Count of elements                        : 1086
Stream size                              : 36.7 KiB (0%)
Language                                : English
Default                                  : Yes
Forced                                  : No

Text #2
ID                                      : 5
Format                                  : UTF-8
Codec ID                                : S_TEXT/UTF8
Codec ID/Info                            : UTF-8 Plain Text
Duration                                : 2 h 3 min
Bit rate                                : 44 b/s
Count of elements                        : 1020
Stream size                              : 40.0 KiB (0%)
Language                                : Turkish
Default                                  : No
Forced                                  : No

Menu
00:00:00.000                            : en:Chapter 01
00:09:52.926                            : en:Chapter 02
00:24:26.340                            : en:Chapter 03
00:34:52.382                            : en:Chapter 04
00:46:55.271                            : en:Chapter 05
01:02:34.793                            : en:Chapter 06
01:12:38.646                            : en:Chapter 07
01:27:47.512                            : en:Chapter 08
01:34:12.772                            : en:Chapter 09
01:46:46.025                            : en:Chapter 10
01:56:19.389                            : en:Chapter 11
02:04:48.398                            : en:Chapter 12

avatar
resplandor
Novato Pro
Novato Pro

Mensajes : 262
Fecha de inscripción : 12/07/2015

Volver arriba Ir abajo

Re: Bone Tomahawk - Frontera Canibal [2015][AC3][2.0][MEGA|4SHARED][Audio Latino]

Mensaje por chilenony el Dom Mayo 14, 2017 11:57 am

gracias

chilenony
Novato Pro
Novato Pro

Mensajes : 180
Fecha de inscripción : 19/02/2015

Volver arriba Ir abajo

Re: Bone Tomahawk - Frontera Canibal [2015][AC3][2.0][MEGA|4SHARED][Audio Latino]

Mensaje por jo_gee91 el Dom Mayo 14, 2017 5:41 pm

gracias tigre

jo_gee91
Novato
Novato

Mensajes : 12
Fecha de inscripción : 22/06/2016

Volver arriba Ir abajo

Re: Bone Tomahawk - Frontera Canibal [2015][AC3][2.0][MEGA|4SHARED][Audio Latino]

Mensaje por gavito el Dom Mayo 14, 2017 7:35 pm

se ve buena,a ver que tal

gavito
Novato
Novato

Mensajes : 1
Fecha de inscripción : 25/03/2017

Volver arriba Ir abajo

Re: Bone Tomahawk - Frontera Canibal [2015][AC3][2.0][MEGA|4SHARED][Audio Latino]

Mensaje por EMD14 el Lun Mayo 15, 2017 5:05 pm

Gracias!

EMD14
Novato
Novato

Mensajes : 47
Fecha de inscripción : 05/06/2013

Volver arriba Ir abajo

Re: Bone Tomahawk - Frontera Canibal [2015][AC3][2.0][MEGA|4SHARED][Audio Latino]

Mensaje por coldwii el Mar Mayo 16, 2017 1:14 am

Gracias

coldwii
Novato Avanzado
Novato Avanzado

Mensajes : 142
Fecha de inscripción : 19/06/2015

Volver arriba Ir abajo

Re: Bone Tomahawk - Frontera Canibal [2015][AC3][2.0][MEGA|4SHARED][Audio Latino]

Mensaje por Rprias el Miér Mayo 17, 2017 7:25 pm

Se ve de myu buena pinta. Lo vo a descargar, gracias.

Rprias
Novato
Novato

Mensajes : 13
Fecha de inscripción : 28/07/2016

Volver arriba Ir abajo

Re: Bone Tomahawk - Frontera Canibal [2015][AC3][2.0][MEGA|4SHARED][Audio Latino]

Mensaje por aldomz el Jue Mayo 18, 2017 10:59 am

gracias

aldomz
Novato
Novato

Mensajes : 35
Fecha de inscripción : 09/11/2016

Volver arriba Ir abajo

Re: Bone Tomahawk - Frontera Canibal [2015][AC3][2.0][MEGA|4SHARED][Audio Latino]

Mensaje por ITALYBOXER el Vie Mayo 19, 2017 12:35 am

Cool Laughing

ITALYBOXER
Novato
Novato

Mensajes : 22
Fecha de inscripción : 16/12/2016

Volver arriba Ir abajo

Re: Bone Tomahawk - Frontera Canibal [2015][AC3][2.0][MEGA|4SHARED][Audio Latino]

Mensaje por Juvo el Sáb Mayo 20, 2017 3:13 pm

gracias por el aporte

Juvo
Novato
Novato

Mensajes : 41
Fecha de inscripción : 08/11/2016

Volver arriba Ir abajo

Re: Bone Tomahawk - Frontera Canibal [2015][AC3][2.0][MEGA|4SHARED][Audio Latino]

Mensaje por house el Dom Mayo 21, 2017 10:59 am

Muchas gracias
avatar
house
Novato
Novato

Mensajes : 34
Fecha de inscripción : 01/02/2016

Volver arriba Ir abajo

Re: Bone Tomahawk - Frontera Canibal [2015][AC3][2.0][MEGA|4SHARED][Audio Latino]

Mensaje por j carlos el Jue Mayo 25, 2017 3:23 pm

Muchísimas Gracias

j carlos
Novato
Novato

Mensajes : 11
Fecha de inscripción : 18/10/2016

Volver arriba Ir abajo

gracias capo!

Mensaje por tortugucho el Lun Mayo 29, 2017 11:42 am

Reynier escribió:

Código:

Audio
Format...........................: AC3
Duration.........................: 2 h 12 min
Bit rate.........................: 192 Kbps
Channel(s).......................: 2 channels
Sampling rate....................: 48.0 KHz
File size........................: 181 MB

Sincroniza con la version 1080p.BluRay-ROVERS con un delay de -300 ms.

Descarga:

Contenido oculto, debes responder para ver el contenido

tortugucho
Novato
Novato

Mensajes : 1
Fecha de inscripción : 29/05/2017

Volver arriba Ir abajo

Re: Bone Tomahawk - Frontera Canibal [2015][AC3][2.0][MEGA|4SHARED][Audio Latino]

Mensaje por guty34 el Mar Jun 06, 2017 5:00 pm

gracias

guty34
Novato Avanzado
Novato Avanzado

Mensajes : 126
Fecha de inscripción : 18/07/2016

Volver arriba Ir abajo

Re: Bone Tomahawk - Frontera Canibal [2015][AC3][2.0][MEGA|4SHARED][Audio Latino]

Mensaje por Thor_Ragnarok93 el Miér Jun 07, 2017 2:48 am

Very Happy Gracias
avatar
Thor_Ragnarok93
Novato Pro
Novato Pro

Mensajes : 203
Fecha de inscripción : 04/03/2017

Volver arriba Ir abajo

Re: Bone Tomahawk - Frontera Canibal [2015][AC3][2.0][MEGA|4SHARED][Audio Latino]

Mensaje por antony2011 el Sáb Jun 17, 2017 10:14 pm

gracias por este aporte

antony2011
Novato
Novato

Mensajes : 5
Fecha de inscripción : 11/08/2016

Volver arriba Ir abajo

Re: Bone Tomahawk - Frontera Canibal [2015][AC3][2.0][MEGA|4SHARED][Audio Latino]

Mensaje por Contenido patrocinado


Contenido patrocinado


Volver arriba Ir abajo

Página 1 de 2. 1, 2  Siguiente

Ver el tema anterior Ver el tema siguiente Volver arriba


 
Permisos de este foro:
No puedes responder a temas en este foro.