Mine [2016][DTS][5.1][Latino][OPENLOAD]

Ver el tema anterior Ver el tema siguiente Ir abajo

Mine [2016][DTS][5.1][Latino][OPENLOAD]

Mensaje por terko el Miér Mayo 17, 2017 8:24 am



Código:
Info/Audio

Fuente ........................... BD
Formato..........................: DTS
Duración................................:  1h  46min
Tasa de bits...........................: 768 kbps  
Canal(es)..............................: 6 canales
Velocidad de muestreo.................: 48.0 kHz
Tamaño de pista....................: 586 MB

Info/Audio

Fuente ........................... BD
Formato..........................: AC-3
Duración................................:  1h  46min
Tasa de bits...........................: 640 kbps  
Canal(es)..............................: 6 canales
Velocidad de muestreo.................: 48.0 kHz
Tamaño de pista....................: 489 MB

DESCARGA:
OPENLOAD DTS
MEGA AC-3
contraseña: audiosparapeliculas.foroa.org

AGRADECER NO CUESTA NADA.... Wink


Última edición por terko el Jue Ago 03, 2017 6:26 am, editado 3 veces
avatar
terko
Uploader
Uploader

Mensajes : 410
Fecha de inscripción : 05/04/2015
Localización : Narnia

Volver arriba Ir abajo

Re: Mine [2016][DTS][5.1][Latino][OPENLOAD]

Mensaje por EABG el Miér Mayo 17, 2017 11:06 am

Excelente, queda perfectamente
Gracias

EABG
Novato
Novato

Mensajes : 2
Fecha de inscripción : 15/05/2017

Volver arriba Ir abajo

Re: Mine [2016][DTS][5.1][Latino][OPENLOAD]

Mensaje por patriothermes el Jue Mayo 18, 2017 5:13 am

Te agradezco por audio, aunque tiene un retraso

patriothermes
Novato
Novato

Mensajes : 7
Fecha de inscripción : 24/04/2017

Volver arriba Ir abajo

Re: Mine [2016][DTS][5.1][Latino][OPENLOAD]

Mensaje por lobo_fer el Jue Mayo 18, 2017 9:08 am

muchas gracias, estas versiones pesadas son las buenas y que valen la pena.
avatar
lobo_fer
Novato
Novato

Mensajes : 33
Fecha de inscripción : 03/09/2015

Volver arriba Ir abajo

Re: Mine [2016][DTS][5.1][Latino][OPENLOAD]

Mensaje por Leoelduro el Jue Mayo 18, 2017 7:48 pm

Gracias muy buen audio

Leoelduro
Novato Avanzado
Novato Avanzado

Mensajes : 106
Fecha de inscripción : 06/10/2015

Volver arriba Ir abajo

Re: Mine [2016][DTS][5.1][Latino][OPENLOAD]

Mensaje por pappo666 el Dom Mayo 21, 2017 1:38 pm

Gracias!!!

Mine.2016.repack.1080p.Bluray.x264-kyr - Sin Delay
avatar
pappo666
Novato
Novato

Mensajes : 93
Fecha de inscripción : 23/02/2015

Volver arriba Ir abajo

Re: Mine [2016][DTS][5.1][Latino][OPENLOAD]

Mensaje por resplandor el Dom Mayo 21, 2017 3:59 pm

Gracias!
Funciona para Mine.2016.BluRay.1080p.DTS-HD.MA.5.1.x264-EPiC

Código:
General
Unique ID                                : 254466042154951514064991720481911044195 (0xBF706085CC3D5B19B9B6DEA01E097863)
Complete name                            : Mine.2016.BluRay.1080p.DTS-HD.MA.5.1.x264-EPiC.mkv
Format                                  : Matroska
Format version                          : Version 4 / Version 2
File size                                : 10.2 GiB
Duration                                : 1 h 46 min
Overall bit rate                        : 13.7 Mb/s
Movie name                              : Mine.2016.BluRay.1080p.DTS-HD.MA.5.1.x264-EPiC@CMCT
Encoded date                            : UTC 2017-04-26 18:12:46
Writing application                      : mkvmerge v9.9.0 ('Pick Up') 32bit
Writing library                          : libebml v1.3.4 + libmatroska v1.4.5

Video
ID                                      : 1
Format                                  : AVC
Format/Info                              : Advanced Video Codec
Format profile                          : High@L4.1
Format settings, CABAC                  : Yes
Format settings, ReFrames                : 5 frames
Codec ID                                : V_MPEG4/ISO/AVC
Duration                                : 1 h 46 min
Bit rate                                : 11.6 Mb/s
Width                                    : 1 920 pixels
Height                                  : 816 pixels
Display aspect ratio                    : 2.35:1
Frame rate mode                          : Constant
Frame rate                              : 23.976 (24000/1001) FPS
Color space                              : YUV
Chroma subsampling                      : 4:2:0
Bit depth                                : 8 bits
Scan type                                : Progressive
Bits/(Pixel*Frame)                      : 0.310
Stream size                              : 8.68 GiB (85%)
Title                                    : Mine.2016.BluRay.1080p.DTS-HD.MA.5.1.x264-EPiC@CMCT
Writing library                          : x264 core 148 r2744kMod b97ae06
Encoding settings                        : cabac=1 / ref=5 / deblock=1:-3:-3 / analyse=0x3:0x133 / me=umh / subme=11 / psy=1 / fade_compensate=0.00 / psy_rd=0.90:0.00 / mixed_ref=1 / me_range=32 / chroma_me=1 / trellis=2 / 8x8dct=1 / cqm=0 / deadzone=21,11 / fast_pskip=0 / chroma_qp_offset=-2 / threads=25 / lookahead_threads=4 / sliced_threads=0 / nr=0 / decimate=0 / interlaced=0 / bluray_compat=0 / constrained_intra=0 / bframes=8 / b_pyramid=2 / b_adapt=2 / b_bias=0 / direct=3 / weightb=1 / open_gop=0 / weightp=2 / keyint=250 / keyint_min=23 / scenecut=40 / intra_refresh=0 / rc_lookahead=60 / rc=crf / mbtree=0 / crf=16.2000 / qcomp=0.60 / qpmin=0 / qpmax=69 / qpstep=4 / vbv_maxrate=40000 / vbv_bufsize=30000 / crf_max=0.0 / nal_hrd=none / filler=0 / ip_ratio=1.40 / pb_ratio=1.30 / aq=1:0.90
Language                                : English
Default                                  : Yes
Forced                                  : No

Audio
ID                                      : 2
Format                                  : DTS
Format/Info                              : Digital Theater Systems
Format profile                          : MA / Core
Mode                                    : 16
Format settings, Endianness              : Big
Codec ID                                : A_DTS
Duration                                : 1 h 46 min
Bit rate mode                            : Variable / Constant
Bit rate                                : 1 996 kb/s / 1 509 kb/s
Channel(s)                              : 6 channels
Channel positions                        : Front: L C R, Side: L R, LFE
Sampling rate                            : 48.0 kHz
Frame rate                              : 93.750 FPS (512 spf)
Bit depth                                : 24 bits
Compression mode                        : Lossless / Lossy
Stream size                              : 1.49 GiB (15%)
Title                                    : English DTS-HD MA 5.1 @1996 Kbps
Language                                : English
Default                                  : Yes
Forced                                  : No

Text
ID                                      : 3
Format                                  : PGS
Muxing mode                              : zlib
Codec ID                                : S_HDMV/PGS
Codec ID/Info                            : Picture based subtitle format used on BDs/HD-DVDs
Duration                                : 1 h 45 min
Bit rate                                : 12.1 kb/s
Count of elements                        : 1856
Stream size                              : 9.16 MiB (0%)
Title                                    : English/PGS (SDH)
Language                                : English
Default                                  : Yes
Forced                                  : No

Menu
00:00:00.000                            : en:00:00:00.000
00:10:35.385                            : en:00:10:35.385
00:17:31.050                            : en:00:17:31.050
00:25:19.017                            : en:00:25:19.017
00:31:34.309                            : en:00:31:34.309
00:39:09.180                            : en:00:39:09.180
00:46:48.264                            : en:00:46:48.264
00:52:24.475                            : en:00:52:24.475
00:57:01.501                            : en:00:57:01.501
01:06:36.659                            : en:01:06:36.659
01:15:22.226                            : en:01:15:22.226
01:27:05.137                            : en:01:27:05.137
01:43:33.207                            : en:01:43:33.207

avatar
resplandor
Novato Pro
Novato Pro

Mensajes : 250
Fecha de inscripción : 12/07/2015

Volver arriba Ir abajo

Re: Mine [2016][DTS][5.1][Latino][OPENLOAD]

Mensaje por Tyronekorg el Lun Jul 03, 2017 10:14 pm

Link caido...!!

Tyronekorg
Novato
Novato

Mensajes : 11
Fecha de inscripción : 29/10/2016

Volver arriba Ir abajo

Re: Mine [2016][DTS][5.1][Latino][OPENLOAD]

Mensaje por terko el Lun Jul 03, 2017 11:02 pm

Tyronekorg escribió:Link caido...!!

resubido....
avatar
terko
Uploader
Uploader

Mensajes : 410
Fecha de inscripción : 05/04/2015
Localización : Narnia

Volver arriba Ir abajo

Re: Mine [2016][DTS][5.1][Latino][OPENLOAD]

Mensaje por Tyronekorg el Miér Jul 05, 2017 4:59 pm

Muchas Gracias my friend...Bendiciones!!

Tyronekorg
Novato
Novato

Mensajes : 11
Fecha de inscripción : 29/10/2016

Volver arriba Ir abajo

Re: Mine [2016][DTS][5.1][Latino][OPENLOAD]

Mensaje por azulazul el Sáb Jul 15, 2017 6:13 pm

gracias amigo....

azulazul
Novato
Novato

Mensajes : 4
Fecha de inscripción : 19/01/2017

Volver arriba Ir abajo

Re: Mine [2016][DTS][5.1][Latino][OPENLOAD]

Mensaje por garcia el Miér Ago 02, 2017 11:50 am

amigo terko buena tarde, no lo tienes en otro formato, en c3, c5 porque el dts no me lo lee, gracias
avatar
garcia
Novato
Novato

Mensajes : 56
Fecha de inscripción : 11/08/2015

Volver arriba Ir abajo

Re: Mine [2016][DTS][5.1][Latino][OPENLOAD]

Mensaje por cesarcl el Jue Ago 03, 2017 1:14 am

garcia escribió:amigo terko buena tarde,  no lo tienes en otro formato, en c3, c5  porque el dts no me lo lee,  gracias

Lo puedes convertir en AC3
avatar
cesarcl
Moderador
Moderador

Mensajes : 2833
Fecha de inscripción : 06/03/2014

Volver arriba Ir abajo

Re: Mine [2016][DTS][5.1][Latino][OPENLOAD]

Mensaje por terko el Jue Ago 03, 2017 6:27 am

garcia escribió:amigo terko buena tarde,  no lo tienes en otro formato, en c3, c5  porque el dts no me lo lee,  gracias

AHI LO DEJE EN AC3 LUEGO LO SUBO A MAS SERVIDORES
avatar
terko
Uploader
Uploader

Mensajes : 410
Fecha de inscripción : 05/04/2015
Localización : Narnia

Volver arriba Ir abajo

Re: Mine [2016][DTS][5.1][Latino][OPENLOAD]

Mensaje por garcia el Vie Ago 04, 2017 2:03 pm

gracias amigos en verdad son fenomenales, y gracias por sus atenciones tampoco nos podemos quejar son geniales
avatar
garcia
Novato
Novato

Mensajes : 56
Fecha de inscripción : 11/08/2015

Volver arriba Ir abajo

Re: Mine [2016][DTS][5.1][Latino][OPENLOAD]

Mensaje por Contenido patrocinado


Contenido patrocinado


Volver arriba Ir abajo

Ver el tema anterior Ver el tema siguiente Volver arriba

- Temas similares

 
Permisos de este foro:
No puedes responder a temas en este foro.