Power Rangers [2017][AC3][5.1][Latino][MG/OPENLOAD]

Página 2 de 4. Precedente  1, 2, 3, 4  Siguiente

Ver el tema anterior Ver el tema siguiente Ir abajo

Re: Power Rangers [2017][AC3][5.1][Latino][MG/OPENLOAD]

Mensaje por joseanaya el Jue Jun 15, 2017 10:30 pm

gracias amigo

joseanaya
Novato
Novato

Mensajes : 26
Fecha de inscripción : 13/12/2014

Volver arriba Ir abajo

Re: Power Rangers [2017][AC3][5.1][Latino][MG/OPENLOAD]

Mensaje por tomkins el Vie Jun 16, 2017 1:17 am

Gracias!!!
avatar
tomkins
Novato
Novato

Mensajes : 23
Fecha de inscripción : 28/09/2013

Volver arriba Ir abajo

Re: Power Rangers [2017][AC3][5.1][Latino][MG/OPENLOAD]

Mensaje por resplandor el Vie Jun 16, 2017 11:50 pm

gracias!
funciona para Power.Rangers.2017.1080p.BluRay.x264-GECKOS

Código:
General
Unique ID                                : 198101864021353639386357084522932818403 (0x950907FC7217E5D283DCDAD86F5B51E3)
Complete name                            : Power.Rangers.2017.1080p.BluRay.x264-GECKOS.mkv
Format                                  : Matroska
Format version                          : Version 4 / Version 2
File size                                : 7.64 GiB
Duration                                : 2 h 3 min
Overall bit rate                        : 8 826 kb/s
Encoded date                            : UTC 2017-06-16 01:42:27
Writing application                      : mkvmerge v12.0.0 ('Trust / Lust') 64bit
Writing library                          : libebml v1.3.4 + libmatroska v1.4.5

Video
ID                                      : 1
Format                                  : AVC
Format/Info                              : Advanced Video Codec
Format profile                          : High@L4.1
Format settings, CABAC                  : Yes
Format settings, ReFrames                : 5 frames
Codec ID                                : V_MPEG4/ISO/AVC
Duration                                : 2 h 3 min
Bit rate                                : 8 186 kb/s
Width                                    : 1 920 pixels
Height                                  : 800 pixels
Display aspect ratio                    : 2.40:1
Frame rate mode                          : Constant
Frame rate                              : 23.976 (24000/1001) FPS
Color space                              : YUV
Chroma subsampling                      : 4:2:0
Bit depth                                : 8 bits
Scan type                                : Progressive
Bits/(Pixel*Frame)                      : 0.222
Stream size                              : 7.09 GiB (93%)
Writing library                          : x264 core 150 r2833 df79067
Encoding settings                        : cabac=1 / ref=5 / deblock=1:-3:-3 / analyse=0x3:0x113 / me=umh / subme=8 / psy=1 / psy_rd=1.00:0.00 / mixed_ref=1 / me_range=16 / chroma_me=1 / trellis=1 / 8x8dct=1 / cqm=0 / deadzone=21,11 / fast_pskip=1 / chroma_qp_offset=-2 / threads=25 / lookahead_threads=4 / sliced_threads=0 / nr=0 / decimate=1 / interlaced=0 / bluray_compat=0 / constrained_intra=0 / bframes=3 / b_pyramid=2 / b_adapt=1 / b_bias=0 / direct=3 / weightb=1 / open_gop=0 / weightp=2 / keyint=240 / keyint_min=24 / scenecut=40 / intra_refresh=0 / rc_lookahead=50 / rc=2pass / mbtree=1 / bitrate=8186 / ratetol=1.0 / qcomp=0.60 / qpmin=0 / qpmax=69 / qpstep=4 / cplxblur=20.0 / qblur=0.5 / ip_ratio=1.40 / aq=1:1.00
Default                                  : Yes
Forced                                  : No

Audio
ID                                      : 2
Format                                  : AC-3
Format/Info                              : Audio Coding 3
Format settings, Endianness              : Big
Codec ID                                : A_AC3
Duration                                : 2 h 3 min
Bit rate mode                            : Constant
Bit rate                                : 640 kb/s
Channel(s)                              : 6 channels
Channel positions                        : Front: L C R, Side: L R, LFE
Sampling rate                            : 48.0 kHz
Frame rate                              : 31.250 FPS (1536 spf)
Bit depth                                : 16 bits
Compression mode                        : Lossy
Stream size                              : 568 MiB (7%)
Language                                : English
Service kind                            : Complete Main
Default                                  : Yes
Forced                                  : No

Menu
00:00:00.000                            : en:00:00:00.000
00:07:00.253                            : en:00:07:00.253
00:13:45.241                            : en:00:13:45.241
00:18:57.720                            : en:00:18:57.720
00:25:49.590                            : en:00:25:49.590
00:31:17.125                            : en:00:31:17.125
00:38:24.761                            : en:00:38:24.761
00:50:49.046                            : en:00:50:49.046
01:00:00.221                            : en:01:00:00.221
01:08:09.877                            : en:01:08:09.877
01:17:06.747                            : en:01:17:06.747
01:24:41.743                            : en:01:24:41.743
01:30:45.023                            : en:01:30:45.023
01:34:18.861                            : en:01:34:18.861
01:44:32.933                            : en:01:44:32.933
01:51:46.158                            : en:01:51:46.158

avatar
resplandor
Novato Pro
Novato Pro

Mensajes : 250
Fecha de inscripción : 12/07/2015

Volver arriba Ir abajo

Re: Power Rangers [2017][AC3][5.1][Latino][MG/OPENLOAD]

Mensaje por Ever64 el Sáb Jun 17, 2017 12:00 am

Muchas Gracias...

Ever64
Novato
Novato

Mensajes : 79
Fecha de inscripción : 03/11/2016

Volver arriba Ir abajo

Re: Power Rangers [2017][AC3][5.1][Latino][MG/OPENLOAD]

Mensaje por smartjr el Sáb Jun 17, 2017 1:31 am

algún delay para los BD?

smartjr
Novato
Novato

Mensajes : 20
Fecha de inscripción : 18/06/2016

Volver arriba Ir abajo

Re: Power Rangers [2017][AC3][5.1][Latino][MG/OPENLOAD]

Mensaje por terko el Sáb Jun 17, 2017 1:32 am

smartjr escribió:algún delay para los BD?


no lose! estoy en espera del audio del bluray jejeje prueba!! Very Happy
avatar
terko
Uploader
Uploader

Mensajes : 410
Fecha de inscripción : 05/04/2015
Localización : Narnia

Volver arriba Ir abajo

Re: Power Rangers [2017][AC3][5.1][Latino][MG/OPENLOAD]

Mensaje por nico26051999 el Sáb Jun 17, 2017 12:47 pm

Gracias!!

nico26051999
Novato
Novato

Mensajes : 12
Fecha de inscripción : 23/02/2017

Volver arriba Ir abajo

Re: Power Rangers [2017][AC3][5.1][Latino][MG/OPENLOAD]

Mensaje por terko el Sáb Jun 17, 2017 12:55 pm

AUDIO DEL BD AGREGADO Very Happy
avatar
terko
Uploader
Uploader

Mensajes : 410
Fecha de inscripción : 05/04/2015
Localización : Narnia

Volver arriba Ir abajo

Re: Power Rangers [2017][AC3][5.1][Latino][MG/OPENLOAD]

Mensaje por apophis el Sáb Jun 17, 2017 1:05 pm

Buenísimo. Lo anda buscando. Espero que esté buena la película.

Gracias por compartirlo.
avatar
apophis
Novato
Novato

Mensajes : 31
Fecha de inscripción : 31/01/2015

Volver arriba Ir abajo

Re: Power Rangers [2017][AC3][5.1][Latino][MG/OPENLOAD]

Mensaje por Nueve el Sáb Jun 17, 2017 1:52 pm

wena Laughing

Nueve
Novato
Novato

Mensajes : 15
Fecha de inscripción : 27/10/2016

Volver arriba Ir abajo

Re: Power Rangers [2017][AC3][5.1][Latino][MG/OPENLOAD]

Mensaje por jhprim el Sáb Jun 17, 2017 2:28 pm

Muchas Gracias, Encajen perfectos en la versión:
"Power.Rangers.2017.1080p.BluRay.x264-[YTS.AG]"
Sin Delays

jhprim
Novato
Novato

Mensajes : 88
Fecha de inscripción : 27/03/2015

Volver arriba Ir abajo

Re: Power Rangers [2017][AC3][5.1][Latino][MG/OPENLOAD]

Mensaje por GaryOpengo el Sáb Jun 17, 2017 7:34 pm

Saludos, para los que tienen problemas con la sincronización espero les sirva este dato. Lo Probé en una versión de 23.98fps y se desfasa el audio.
avatar
GaryOpengo
Novato
Novato

Mensajes : 23
Fecha de inscripción : 31/08/2016
Localización : México

http://electrobite.tumblr.com

Volver arriba Ir abajo

Re: Power Rangers [2017][AC3][5.1][Latino][MG/OPENLOAD]

Mensaje por helmuths el Sáb Jun 17, 2017 10:03 pm

en la version MKVcage el audio de desfasa, algun delay?

helmuths
Novato
Novato

Mensajes : 18
Fecha de inscripción : 25/03/2016

Volver arriba Ir abajo

Audio con error

Mensaje por jgbxx el Dom Jun 18, 2017 5:55 pm

Muchas gracias, solo una acotacion, El audio BD tiene errores, desde el minuto 3:48 hasta el 9:07  luego en el minuto 32:32 al 35:05

jgbxx
Novato
Novato

Mensajes : 12
Fecha de inscripción : 19/02/2014

Volver arriba Ir abajo

error

Mensaje por jgbxx el Dom Jun 18, 2017 5:59 pm

resplandor escribió:gracias!
funciona para Power.Rangers.2017.1080p.BluRay.x264-GECKOS

Código:
General
Unique ID                                : 198101864021353639386357084522932818403 (0x950907FC7217E5D283DCDAD86F5B51E3)
Complete name                            : Power.Rangers.2017.1080p.BluRay.x264-GECKOS.mkv
Format                                   : Matroska
Format version                           : Version 4 / Version 2
File size                                : 7.64 GiB
Duration                                 : 2 h 3 min
Overall bit rate                         : 8 826 kb/s
Encoded date                             : UTC 2017-06-16 01:42:27
Writing application                      : mkvmerge v12.0.0 ('Trust / Lust') 64bit
Writing library                          : libebml v1.3.4 + libmatroska v1.4.5

Video
ID                                       : 1
Format                                   : AVC
Format/Info                              : Advanced Video Codec
Format profile                           : High@L4.1
Format settings, CABAC                   : Yes
Format settings, ReFrames                : 5 frames
Codec ID                                 : V_MPEG4/ISO/AVC
Duration                                 : 2 h 3 min
Bit rate                                 : 8 186 kb/s
Width                                    : 1 920 pixels
Height                                   : 800 pixels
Display aspect ratio                     : 2.40:1
Frame rate mode                          : Constant
Frame rate                               : 23.976 (24000/1001) FPS
Color space                              : YUV
Chroma subsampling                       : 4:2:0
Bit depth                                : 8 bits
Scan type                                : Progressive
Bits/(Pixel*Frame)                       : 0.222
Stream size                              : 7.09 GiB (93%)
Writing library                          : x264 core 150 r2833 df79067
Encoding settings                        : cabac=1 / ref=5 / deblock=1:-3:-3 / analyse=0x3:0x113 / me=umh / subme=8 / psy=1 / psy_rd=1.00:0.00 / mixed_ref=1 / me_range=16 / chroma_me=1 / trellis=1 / 8x8dct=1 / cqm=0 / deadzone=21,11 / fast_pskip=1 / chroma_qp_offset=-2 / threads=25 / lookahead_threads=4 / sliced_threads=0 / nr=0 / decimate=1 / interlaced=0 / bluray_compat=0 / constrained_intra=0 / bframes=3 / b_pyramid=2 / b_adapt=1 / b_bias=0 / direct=3 / weightb=1 / open_gop=0 / weightp=2 / keyint=240 / keyint_min=24 / scenecut=40 / intra_refresh=0 / rc_lookahead=50 / rc=2pass / mbtree=1 / bitrate=8186 / ratetol=1.0 / qcomp=0.60 / qpmin=0 / qpmax=69 / qpstep=4 / cplxblur=20.0 / qblur=0.5 / ip_ratio=1.40 / aq=1:1.00
Default                                  : Yes
Forced                                   : No

Audio
ID                                       : 2
Format                                   : AC-3
Format/Info                              : Audio Coding 3
Format settings, Endianness              : Big
Codec ID                                 : A_AC3
Duration                                 : 2 h 3 min
Bit rate mode                            : Constant
Bit rate                                 : 640 kb/s
Channel(s)                               : 6 channels
Channel positions                        : Front: L C R, Side: L R, LFE
Sampling rate                            : 48.0 kHz
Frame rate                               : 31.250 FPS (1536 spf)
Bit depth                                : 16 bits
Compression mode                         : Lossy
Stream size                              : 568 MiB (7%)
Language                                 : English
Service kind                             : Complete Main
Default                                  : Yes
Forced                                   : No

Menu
00:00:00.000                             : en:00:00:00.000
00:07:00.253                             : en:00:07:00.253
00:13:45.241                             : en:00:13:45.241
00:18:57.720                             : en:00:18:57.720
00:25:49.590                             : en:00:25:49.590
00:31:17.125                             : en:00:31:17.125
00:38:24.761                             : en:00:38:24.761
00:50:49.046                             : en:00:50:49.046
01:00:00.221                             : en:01:00:00.221
01:08:09.877                             : en:01:08:09.877
01:17:06.747                             : en:01:17:06.747
01:24:41.743                             : en:01:24:41.743
01:30:45.023                             : en:01:30:45.023
01:34:18.861                             : en:01:34:18.861
01:44:32.933                             : en:01:44:32.933
01:51:46.158                             : en:01:51:46.158



El audio BD tiene errores, desde el minuto 3:48 hasta el 9:07 luego en el minuto 32:32 al 35:05

jgbxx
Novato
Novato

Mensajes : 12
Fecha de inscripción : 19/02/2014

Volver arriba Ir abajo

Re: Power Rangers [2017][AC3][5.1][Latino][MG/OPENLOAD]

Mensaje por ramv el Dom Jun 18, 2017 6:09 pm

son ideas mías o el audio no concuerda bien ?

ramv
Novato
Novato

Mensajes : 21
Fecha de inscripción : 02/10/2016

Volver arriba Ir abajo

Re: Power Rangers [2017][AC3][5.1][Latino][MG/OPENLOAD]

Mensaje por terko el Dom Jun 18, 2017 6:10 pm

jgbxx escribió:
resplandor escribió:gracias!
funciona para Power.Rangers.2017.1080p.BluRay.x264-GECKOS

Código:
General
Unique ID                                : 198101864021353639386357084522932818403 (0x950907FC7217E5D283DCDAD86F5B51E3)
Complete name                            : Power.Rangers.2017.1080p.BluRay.x264-GECKOS.mkv
Format                                   : Matroska
Format version                           : Version 4 / Version 2
File size                                : 7.64 GiB
Duration                                 : 2 h 3 min
Overall bit rate                         : 8 826 kb/s
Encoded date                             : UTC 2017-06-16 01:42:27
Writing application                      : mkvmerge v12.0.0 ('Trust / Lust') 64bit
Writing library                          : libebml v1.3.4 + libmatroska v1.4.5

Video
ID                                       : 1
Format                                   : AVC
Format/Info                              : Advanced Video Codec
Format profile                           : High@L4.1
Format settings, CABAC                   : Yes
Format settings, ReFrames                : 5 frames
Codec ID                                 : V_MPEG4/ISO/AVC
Duration                                 : 2 h 3 min
Bit rate                                 : 8 186 kb/s
Width                                    : 1 920 pixels
Height                                   : 800 pixels
Display aspect ratio                     : 2.40:1
Frame rate mode                          : Constant
Frame rate                               : 23.976 (24000/1001) FPS
Color space                              : YUV
Chroma subsampling                       : 4:2:0
Bit depth                                : 8 bits
Scan type                                : Progressive
Bits/(Pixel*Frame)                       : 0.222
Stream size                              : 7.09 GiB (93%)
Writing library                          : x264 core 150 r2833 df79067
Encoding settings                        : cabac=1 / ref=5 / deblock=1:-3:-3 / analyse=0x3:0x113 / me=umh / subme=8 / psy=1 / psy_rd=1.00:0.00 / mixed_ref=1 / me_range=16 / chroma_me=1 / trellis=1 / 8x8dct=1 / cqm=0 / deadzone=21,11 / fast_pskip=1 / chroma_qp_offset=-2 / threads=25 / lookahead_threads=4 / sliced_threads=0 / nr=0 / decimate=1 / interlaced=0 / bluray_compat=0 / constrained_intra=0 / bframes=3 / b_pyramid=2 / b_adapt=1 / b_bias=0 / direct=3 / weightb=1 / open_gop=0 / weightp=2 / keyint=240 / keyint_min=24 / scenecut=40 / intra_refresh=0 / rc_lookahead=50 / rc=2pass / mbtree=1 / bitrate=8186 / ratetol=1.0 / qcomp=0.60 / qpmin=0 / qpmax=69 / qpstep=4 / cplxblur=20.0 / qblur=0.5 / ip_ratio=1.40 / aq=1:1.00
Default                                  : Yes
Forced                                   : No

Audio
ID                                       : 2
Format                                   : AC-3
Format/Info                              : Audio Coding 3
Format settings, Endianness              : Big
Codec ID                                 : A_AC3
Duration                                 : 2 h 3 min
Bit rate mode                            : Constant
Bit rate                                 : 640 kb/s
Channel(s)                               : 6 channels
Channel positions                        : Front: L C R, Side: L R, LFE
Sampling rate                            : 48.0 kHz
Frame rate                               : 31.250 FPS (1536 spf)
Bit depth                                : 16 bits
Compression mode                         : Lossy
Stream size                              : 568 MiB (7%)
Language                                 : English
Service kind                             : Complete Main
Default                                  : Yes
Forced                                   : No

Menu
00:00:00.000                             : en:00:00:00.000
00:07:00.253                             : en:00:07:00.253
00:13:45.241                             : en:00:13:45.241
00:18:57.720                             : en:00:18:57.720
00:25:49.590                             : en:00:25:49.590
00:31:17.125                             : en:00:31:17.125
00:38:24.761                             : en:00:38:24.761
00:50:49.046                             : en:00:50:49.046
01:00:00.221                             : en:01:00:00.221
01:08:09.877                             : en:01:08:09.877
01:17:06.747                             : en:01:17:06.747
01:24:41.743                             : en:01:24:41.743
01:30:45.023                             : en:01:30:45.023
01:34:18.861                             : en:01:34:18.861
01:44:32.933                             : en:01:44:32.933
01:51:46.158                             : en:01:51:46.158



El audio BD tiene errores, desde el minuto 3:48 hasta el 9:07  luego en el minuto 32:32 al 35:05



ahora lo checo....gracias por avisar Very Happy
avatar
terko
Uploader
Uploader

Mensajes : 410
Fecha de inscripción : 05/04/2015
Localización : Narnia

Volver arriba Ir abajo

Re: Power Rangers [2017][AC3][5.1][Latino][MG/OPENLOAD]

Mensaje por terko el Dom Jun 18, 2017 6:13 pm

ramv escribió:son ideas mías o el audio no concuerda bien ?

el del bd si esta mal! ya lo arreglo!
avatar
terko
Uploader
Uploader

Mensajes : 410
Fecha de inscripción : 05/04/2015
Localización : Narnia

Volver arriba Ir abajo

Re: Power Rangers [2017][AC3][5.1][Latino][MG/OPENLOAD]

Mensaje por terko el Dom Jun 18, 2017 6:59 pm

solucionado el problema con el audio del BD Very Happy Very Happy
avatar
terko
Uploader
Uploader

Mensajes : 410
Fecha de inscripción : 05/04/2015
Localización : Narnia

Volver arriba Ir abajo

Re: Power Rangers [2017][AC3][5.1][Latino][MG/OPENLOAD]

Mensaje por helmuths el Dom Jun 18, 2017 9:03 pm

terko escribió:solucionado el problema con el audio del BD   Very Happy Very Happy
Cómo?, entonces solo descargo otra vez y ya?

helmuths
Novato
Novato

Mensajes : 18
Fecha de inscripción : 25/03/2016

Volver arriba Ir abajo

Re: Power Rangers [2017][AC3][5.1][Latino][MG/OPENLOAD]

Mensaje por snooopamk el Dom Jun 18, 2017 9:04 pm

muchas gracias

snooopamk
Novato
Novato

Mensajes : 6
Fecha de inscripción : 10/09/2016

Volver arriba Ir abajo

Re: Power Rangers [2017][AC3][5.1][Latino][MG/OPENLOAD]

Mensaje por terko el Dom Jun 18, 2017 9:20 pm

helmuths escribió:
terko escribió:solucionado el problema con el audio del BD   Very Happy Very Happy
Cómo?, entonces solo descargo otra vez y ya?

claro Very Happy eso mismo
avatar
terko
Uploader
Uploader

Mensajes : 410
Fecha de inscripción : 05/04/2015
Localización : Narnia

Volver arriba Ir abajo

Re: Power Rangers [2017][AC3][5.1][Latino][MG/OPENLOAD]

Mensaje por jgbxx el Dom Jun 18, 2017 9:45 pm

terko escribió:
helmuths escribió:
terko escribió:solucionado el problema con el audio del BD   Very Happy Very Happy
Cómo?, entonces solo descargo otra vez y ya?

claro Very Happy eso mismo

Disculpa pero lo arreglaste demuxeandolo del disco BD, o solo recodificaste el otro archivo del DVD que pesaba menos??.
Es que se escucha algo distinto al primer archivo sacado del BD. Igual gracias por el esfuerzo.

jgbxx
Novato
Novato

Mensajes : 12
Fecha de inscripción : 19/02/2014

Volver arriba Ir abajo

Re: Power Rangers [2017][AC3][5.1][Latino][MG/OPENLOAD]

Mensaje por terko el Dom Jun 18, 2017 10:38 pm

jgbxx escribió:
terko escribió:
helmuths escribió:
terko escribió:solucionado el problema con el audio del BD   Very Happy Very Happy
Cómo?, entonces solo descargo otra vez y ya?

claro Very Happy eso mismo

Disculpa pero lo arreglaste demuxeandolo del disco BD, o solo recodificaste el otro archivo del DVD que pesaba menos??.
Es que se escucha algo distinto al primer archivo sacado del BD. Igual gracias por el esfuerzo.


del disco BD...... Very Happy lo compare al otro y se escucha igual Very Happy
avatar
terko
Uploader
Uploader

Mensajes : 410
Fecha de inscripción : 05/04/2015
Localización : Narnia

Volver arriba Ir abajo

Re: Power Rangers [2017][AC3][5.1][Latino][MG/OPENLOAD]

Mensaje por Edgardo.munoz.valenzuela el Dom Jun 18, 2017 10:51 pm

y el link para el audio??, solo encuentro el de subtitulos....

Edgardo.munoz.valenzuela
Novato
Novato

Mensajes : 10
Fecha de inscripción : 15/05/2017

Volver arriba Ir abajo

Re: Power Rangers [2017][AC3][5.1][Latino][MG/OPENLOAD]

Mensaje por Contenido patrocinado


Contenido patrocinado


Volver arriba Ir abajo

Página 2 de 4. Precedente  1, 2, 3, 4  Siguiente

Ver el tema anterior Ver el tema siguiente Volver arriba

- Temas similares

 
Permisos de este foro:
No puedes responder a temas en este foro.