Payback 1999 Theatrical Cut [5.1][AC-3][MEGA][LATINO]

Ver el tema anterior Ver el tema siguiente Ir abajo

Payback 1999 Theatrical Cut [5.1][AC-3][MEGA][LATINO]

Mensaje por jansel90 el Vie Abr 25, 2014 5:56 pm

PAYBACK [THEATRICAL CUT][5.1][AC-3][MEGA][LATINO]



Código:
Audio
Format...........................: AC-3
Duration.........................: 1h 41mn 09s
Bit rate.........................: 448 Kbps
Channel(s).......................: 6 channels
Sampling rate....................: 48.0 KHz
File size........................: 324 MB (100%)


CLICK AQUÍ:

[Tienes que estar registrado y conectado para ver este vínculo]


audiosparapeliculas.foroa.org

avatar
jansel90
Moderador
Moderador

Mensajes : 456
Fecha de inscripción : 30/07/2013

Volver arriba Ir abajo

Re: Payback 1999 Theatrical Cut [5.1][AC-3][MEGA][LATINO]

Mensaje por matrixxx el Dom Nov 08, 2015 2:26 pm

muchas gracias jansel90, audio descargado, ahora voy a editar mi dvd

matrixxx
Novato
Novato

Mensajes : 65
Fecha de inscripción : 08/07/2014
Edad : 57

Volver arriba Ir abajo

Re: Payback 1999 Theatrical Cut [5.1][AC-3][MEGA][LATINO]

Mensaje por elgamer242 el Miér Ene 06, 2016 12:23 pm

gracas

elgamer242
Novato
Novato

Mensajes : 21
Fecha de inscripción : 07/12/2014

Volver arriba Ir abajo

Re: Payback 1999 Theatrical Cut [5.1][AC-3][MEGA][LATINO]

Mensaje por markcrema37 el Miér Oct 26, 2016 10:49 am

buen aporte

markcrema37
Novato
Novato

Mensajes : 50
Fecha de inscripción : 26/06/2015

Volver arriba Ir abajo

Re: Payback 1999 Theatrical Cut [5.1][AC-3][MEGA][LATINO]

Mensaje por resplandor el Sáb Oct 29, 2016 2:02 am

Gracias!
Funciona perfecto para Payback.1999.1080p.BluRay.x264.DD5.1-FGT

Código:
General
Unique ID                                : 244377308307077649241244639115873751623 (0xB7D95B8A587496A3B1F9030F6D961247)
Complete name                            : Payback.1999.1080p.BluRay.x264.DD5.1-FGT.mkv
Format                                  : Matroska
Format version                          : Version 4 / Version 2
File size                                : 7.30 GiB
Duration                                : 1 h 41 min
Overall bit rate                        : 10.3 Mb/s
Movie name                              : Payback.1999.1080p.BluRay.x264.DD5.1-FGT
Encoded date                            : UTC 2016-10-21 17:54:40
Writing application                      : mkvmerge v9.4.0 ('Knurl') 64bit
Writing library                          : libebml v1.3.4 + libmatroska v1.4.5
Cover                                    : Yes
Attachments                              : cover_land.jpg / small_cover.jpg / small_cover_land.jpg / cover.jpg / cover.jpg

Video
ID                                      : 1
Format                                  : AVC
Format/Info                              : Advanced Video Codec
Format profile                          : High@L4.1
Format settings, CABAC                  : Yes
Format settings, ReFrames                : 5 frames
Codec ID                                : V_MPEG4/ISO/AVC
Duration                                : 1 h 41 min
Bit rate                                : 9 674 kb/s
Width                                    : 1 920 pixels
Height                                  : 816 pixels
Display aspect ratio                    : 2.35:1
Frame rate mode                          : Constant
Frame rate                              : 23.976 (24000/1001) FPS
Color space                              : YUV
Chroma subsampling                      : 4:2:0
Bit depth                                : 8 bits
Scan type                                : Progressive
Bits/(Pixel*Frame)                      : 0.258
Stream size                              : 6.70 GiB (92%)
Writing library                          : x264 core 68 r1183M f21daff
Encoding settings                        : cabac=1 / ref=5 / deblock=1:-3:-3 / analyse=0x3:0x113 / me=umh / subme=9 / psy_rd=0.9:0.1 / mixed_ref=1 / me_range=40 / chroma_me=1 / trellis=2 / 8x8dct=1 / cqm=0 / deadzone=21,11 / chroma_qp_offset=0 / threads=4 / nr=0 / decimate=0 / mbaff=0 / bframes=8 / b_pyramid=0 / b_adapt=2 / b_bias=0 / direct=3 / wpredb=1 / keyint=250 / keyint_min=25 / scenecut=40 / rc=2pass / bitrate=9674 / ratetol=1.0 / qcomp=0.60 / qpmin=10 / qpmax=51 / qpstep=4 / cplxblur=20.0 / qblur=0.5 / vbv_maxrate=50000 / vbv_bufsize=50000 / ip_ratio=1.40 / pb_ratio=1.30 / aq=1:0.70
Default                                  : Yes
Forced                                  : No

Audio
ID                                      : 2
Format                                  : AC-3
Format/Info                              : Audio Coding 3
Mode extension                          : CM (complete main)
Format settings, Endianness              : Big
Codec ID                                : A_AC3
Duration                                : 1 h 41 min
Bit rate mode                            : Constant
Bit rate                                : 640 kb/s
Channel(s)                              : 6 channels
Channel positions                        : Front: L C R, Side: L R, LFE
Sampling rate                            : 48.0 kHz
Frame rate                              : 31.250 FPS (1536 spf)
Compression mode                        : Lossy
Stream size                              : 464 MiB (6%)
Language                                : English
Default                                  : Yes
Forced                                  : No

Text
ID                                      : 3
Format                                  : UTF-8
Codec ID                                : S_TEXT/UTF8
Codec ID/Info                            : UTF-8 Plain Text
Language                                : English
Default                                  : Yes
Forced                                  : No

Menu
00:00:00.000                            : en:Old habits
00:07:38.124                            : en:You're not dead
00:12:49.060                            : en:Not enough
00:20:16.590                            : en:Arthur Stegman
00:27:41.743                            : en:Can't you see I'm working?
00:34:28.191                            : en:Rosie
00:39:57.270                            : en:No hard feelings
00:43:30.650                            : en:Mr. Carter
00:48:52.429                            : en:New friends
00:56:15.831                            : en:What good are you?
01:02:10.101                            : en:Nobody has this number
01:05:43.481                            : en:Moving up in the world
01:13:50.593                            : en:Bury them first
01:16:30.628                            : en:Happy Birthday Johnny
01:19:49.118                            : en:Only seventy thousand?
01:25:44.890                            : en:This little piggy
01:32:57.030                            : en:24 Fielding
01:36:09.555                            : en:Aiming high

avatar
resplandor
Novato Pro
Novato Pro

Mensajes : 268
Fecha de inscripción : 12/07/2015

Volver arriba Ir abajo

Re: Payback 1999 Theatrical Cut [5.1][AC-3][MEGA][LATINO]

Mensaje por coldwii el Miér Nov 15, 2017 2:16 pm

Gracias

coldwii
Novato Pro
Novato Pro

Mensajes : 164
Fecha de inscripción : 19/06/2015

Volver arriba Ir abajo

Re: Payback 1999 Theatrical Cut [5.1][AC-3][MEGA][LATINO]

Mensaje por B1990 el Vie Nov 17, 2017 2:55 pm

No sabía que existia esta versión Shocked , Gracias capo Very Happy

B1990
Novato
Novato

Mensajes : 2
Fecha de inscripción : 17/11/2017

Volver arriba Ir abajo

Re: Payback 1999 Theatrical Cut [5.1][AC-3][MEGA][LATINO]

Mensaje por Contenido patrocinado


Contenido patrocinado


Volver arriba Ir abajo

Ver el tema anterior Ver el tema siguiente Volver arriba

- Temas similares

 
Permisos de este foro:
No puedes responder a temas en este foro.