Policia de Beverly Hills (Beverly Hills Cop) (1984) (AC3 2.0/5.1) [Latino Original y ReDoblaje]

Ver el tema anterior Ver el tema siguiente Ir abajo

Policia de Beverly Hills (Beverly Hills Cop) (1984) (AC3 2.0/5.1) [Latino Original y ReDoblaje]

Mensaje por jonaand el Miér Ago 09, 2017 2:53 pm

Beverly Hills Cop
Policia de Beverly Hills
1984
Latino Original
Latino ReDoblaje




INFORMACIÓN

Código:
Format...........................: AC-3
Duration.........................: 1h 45mn
Bit rate.........................: 192/640 Kbps
Channel(s).......................: 2/6 channels
Sampling rate....................: 48.0 KHz
File size........................: 144/481 MiB


SINCRONIZA CON BLURAY
[Tienes que estar registrado y conectado para ver este vínculo]
[Tienes que estar registrado y conectado para ver este vínculo]

contraseña: audiosparapeliculas.foroa.org

El ReDoblaje fue extraído del BluRay


Última edición por jonaand el Vie Nov 17, 2017 6:04 pm, editado 3 veces
avatar
jonaand
Uploader
Uploader

Mensajes : 462
Fecha de inscripción : 23/08/2014

Volver arriba Ir abajo

Re: Policia de Beverly Hills (Beverly Hills Cop) (1984) (AC3 2.0/5.1) [Latino Original y ReDoblaje]

Mensaje por armsa el Miér Ago 09, 2017 3:05 pm

no tiene parches en ingles y esta bien sincronizado a diferencia del ya posteado muchas gracias


Última edición por armsa el Jue Ago 10, 2017 10:50 pm, editado 1 vez

armsa
Novato Pro
Novato Pro

Mensajes : 161
Fecha de inscripción : 05/07/2016

Volver arriba Ir abajo

Re: Policia de Beverly Hills (Beverly Hills Cop) (1984) (AC3 2.0/5.1) [Latino Original y ReDoblaje]

Mensaje por Darth el Miér Ago 09, 2017 8:05 pm

Muchas gracias x compartir...

Darth
Novato
Novato

Mensajes : 35
Fecha de inscripción : 12/07/2017

Volver arriba Ir abajo

Re: Policia de Beverly Hills (Beverly Hills Cop) (1984) (AC3 2.0/5.1) [Latino Original y ReDoblaje]

Mensaje por jorgeking10 el Jue Ago 10, 2017 1:46 pm

Gracias Brother.

jorgeking10
Novato
Novato

Mensajes : 35
Fecha de inscripción : 21/07/2017

Volver arriba Ir abajo

Re: Policia de Beverly Hills (Beverly Hills Cop) (1984) (AC3 2.0/5.1) [Latino Original y ReDoblaje]

Mensaje por Queshu el Jue Ago 10, 2017 4:40 pm

Gracias.

Queshu
Novato Pro
Novato Pro

Mensajes : 200
Fecha de inscripción : 11/11/2015

Volver arriba Ir abajo

Re: Policia de Beverly Hills (Beverly Hills Cop) (1984) (AC3 2.0/5.1) [Latino Original y ReDoblaje]

Mensaje por Gino Bacigalupo el Jue Ago 10, 2017 10:21 pm

Muchas gracias por estos dos audios los necesitaba. Very Happy

Gino Bacigalupo
Novato
Novato

Mensajes : 12
Fecha de inscripción : 09/02/2015

Volver arriba Ir abajo

Re: Policia de Beverly Hills (Beverly Hills Cop) (1984) (AC3 2.0/5.1) [Latino Original y ReDoblaje]

Mensaje por mariodelmonaco el Vie Ago 11, 2017 7:27 pm

gracias

mariodelmonaco
Novato
Novato

Mensajes : 5
Fecha de inscripción : 04/08/2016

Volver arriba Ir abajo

Re: Policia de Beverly Hills (Beverly Hills Cop) (1984) (AC3 2.0/5.1) [Latino Original y ReDoblaje]

Mensaje por rosenthal el Sáb Ago 12, 2017 10:39 am

Muchas gracias amigo

rosenthal
Novato
Novato

Mensajes : 37
Fecha de inscripción : 27/03/2017

Volver arriba Ir abajo

Re: Policia de Beverly Hills (Beverly Hills Cop) (1984) (AC3 2.0/5.1) [Latino Original y ReDoblaje]

Mensaje por DinoC73 el Sáb Ago 12, 2017 9:48 pm

Genial, muchas gracias. Shocked

DinoC73
Novato
Novato

Mensajes : 69
Fecha de inscripción : 03/03/2017

Volver arriba Ir abajo

Re: Policia de Beverly Hills (Beverly Hills Cop) (1984) (AC3 2.0/5.1) [Latino Original y ReDoblaje]

Mensaje por omegarojo el Miér Ago 16, 2017 12:20 pm

gracias por los audios!!

omegarojo
Novato
Novato

Mensajes : 12
Fecha de inscripción : 28/05/2014

Volver arriba Ir abajo

Re: Policia de Beverly Hills (Beverly Hills Cop) (1984) (AC3 2.0/5.1) [Latino Original y ReDoblaje]

Mensaje por sergio24 el Jue Ago 17, 2017 6:25 pm

Te pasas... mil gracias!

sergio24
Novato Avanzado
Novato Avanzado

Mensajes : 120
Fecha de inscripción : 19/07/2014

Volver arriba Ir abajo

Re: Policia de Beverly Hills (Beverly Hills Cop) (1984) (AC3 2.0/5.1) [Latino Original y ReDoblaje]

Mensaje por dariok el Dom Sep 03, 2017 3:07 pm

gracias Very Happy Very Happy

dariok
Novato
Novato

Mensajes : 36
Fecha de inscripción : 28/03/2015

Volver arriba Ir abajo

Re: Policia de Beverly Hills (Beverly Hills Cop) (1984) (AC3 2.0/5.1) [Latino Original y ReDoblaje]

Mensaje por Juanjo80s el Lun Oct 02, 2017 4:06 pm

link caido del doblaje latino original

Juanjo80s
Novato
Novato

Mensajes : 6
Fecha de inscripción : 01/10/2017

Volver arriba Ir abajo

Re: Policia de Beverly Hills (Beverly Hills Cop) (1984) (AC3 2.0/5.1) [Latino Original y ReDoblaje]

Mensaje por jonaand el Lun Oct 02, 2017 4:45 pm

Juanjo80s escribió:link caido del doblaje latino original

ahi lo arregle
avatar
jonaand
Uploader
Uploader

Mensajes : 462
Fecha de inscripción : 23/08/2014

Volver arriba Ir abajo

Re: Policia de Beverly Hills (Beverly Hills Cop) (1984) (AC3 2.0/5.1) [Latino Original y ReDoblaje]

Mensaje por Martin89 el Mar Oct 03, 2017 5:02 pm

GRACIAS !!!!
avatar
Martin89
Novato
Novato

Mensajes : 80
Fecha de inscripción : 20/04/2015

Volver arriba Ir abajo

Re: Policia de Beverly Hills (Beverly Hills Cop) (1984) (AC3 2.0/5.1) [Latino Original y ReDoblaje]

Mensaje por resplandor el Lun Nov 13, 2017 1:43 am

Muchas gracias!!!


Funciona perfecto para Beverly.Hills.Cop.1984.1080p.BluRay.DTS.x264-HDMaNiAcS

Código:
General
Unique ID                                : 227126962671900685632686502410906767220 (0xAADF0FD5F9AB75DD8E176FB6C08C0F74)
Complete name                            :Beverly.Hills.Cop.1984.1080p.BluRay.DTS.x264-HDMaNiAcS.mkv
Format                                   : Matroska
Format version                           : Version 4 / Version 2
File size                                : 13.4 GiB
Duration                                 : 1 h 45 min
Overall bit rate                         : 18.3 Mb/s
Movie name                               : Beverly.Hills.Cop.1984.1080p.BluRay.DTS.x264-HDMaNiAcS
Encoded date                             : UTC 2016-04-12 22:09:07
Writing application                      : mkvmerge v9.0.1 ('Obstacles') 64bit
Writing library                          : libebml v1.3.3 + libmatroska v1.4.4

Video
ID                                       : 1
Format                                   : AVC
Format/Info                              : Advanced Video Codec
Format profile                           : High@L4.1
Format settings, CABAC                   : Yes
Format settings, RefFrames               : 4 frames
Codec ID                                 : V_MPEG4/ISO/AVC
Duration                                 : 1 h 45 min
Bit rate                                 : 16.7 Mb/s
Width                                    : 1 920 pixels
Height                                   : 1 080 pixels
Display aspect ratio                     : 16:9
Frame rate mode                          : Constant
Frame rate                               : 23.976 (24000/1001) FPS
Color space                              : YUV
Chroma subsampling                       : 4:2:0
Bit depth                                : 8 bits
Scan type                                : Progressive
Bits/(Pixel*Frame)                       : 0.337
Stream size                              : 12.3 GiB (92%)
Writing library                          : x264 core 146 r2538 121396c
Encoding settings                        : cabac=1 / ref=4 / deblock=1:-3:-3 / analyse=0x3:0x133 / me=tesa / subme=11 / psy=1 / psy_rd=1.02:0.00 / mixed_ref=1 / me_range=32 / chroma_me=1 / trellis=2 / 8x8dct=1 / cqm=0 / deadzone=21,11 / fast_pskip=0 / chroma_qp_offset=-2 / threads=48 / lookahead_threads=8 / sliced_threads=0 / nr=0 / decimate=0 / interlaced=0 / bluray_compat=0 / constrained_intra=0 / bframes=11 / b_pyramid=2 / b_adapt=2 / b_bias=0 / direct=3 / weightb=1 / open_gop=0 / weightp=2 / keyint=240 / keyint_min=23 / scenecut=40 / intra_refresh=0 / rc_lookahead=150 / rc=crf / mbtree=0 / crf=18.5 / qcomp=0.60 / qpmin=0 / qpmax=69 / qpstep=4 / vbv_maxrate=62500 / vbv_bufsize=78125 / crf_max=0.0 / nal_hrd=none / filler=0 / ip_ratio=1.40 / pb_ratio=1.30 / aq=1:0.80
Default                                  : Yes
Forced                                   : No

Audio
ID                                       : 2
Format                                   : DTS
Format/Info                              : Digital Theater Systems
Mode                                     : 16
Format settings, Endianness              : Big
Codec ID                                 : A_DTS
Duration                                 : 1 h 45 min
Bit rate mode                            : Constant
Bit rate                                 : 1 509 kb/s
Channel(s)                               : 6 channels
Channel positions                        : Front: L C R, Side: L R, LFE
Sampling rate                            : 48.0 kHz
Frame rate                               : 93.750 FPS (512 SPF)
Bit depth                                : 24 bits
Compression mode                         : Lossy
Stream size                              : 1.11 GiB (8%)
Language                                 : English
Default                                  : Yes
Forced                                   : No

Text #1
ID                                       : 3
Format                                   : UTF-8
Codec ID                                 : S_TEXT/UTF8
Codec ID/Info                            : UTF-8 Plain Text
Duration                                 : 1 h 38 min
Bit rate                                 : 73 b/s
Count of elements                        : 1318
Stream size                              : 53.0 KiB (0%)
Title                                    : English
Language                                 : English
Default                                  : Yes
Forced                                   : No

Text #2
ID                                       : 4
Format                                   : UTF-8
Codec ID                                 : S_TEXT/UTF8
Codec ID/Info                            : UTF-8 Plain Text
Duration                                 : 1 h 40 min
Bit rate                                 : 75 b/s
Count of elements                        : 1408
Stream size                              : 55.2 KiB (0%)
Title                                    : English-SDH
Language                                 : English
Default                                  : No
Forced                                   : No

Text #3
ID                                       : 5
Format                                   : UTF-8
Codec ID                                 : S_TEXT/UTF8
Codec ID/Info                            : UTF-8 Plain Text
Duration                                 : 1 h 38 min
Bit rate                                 : 87 b/s
Count of elements                        : 930
Stream size                              : 63.1 KiB (0%)
Title                                    : Bulgarian
Language                                 : Bulgarian
Default                                  : No
Forced                                   : No

Text #4
ID                                       : 6
Format                                   : UTF-8
Codec ID                                 : S_TEXT/UTF8
Codec ID/Info                            : UTF-8 Plain Text
Duration                                 : 1 h 38 min
Bit rate                                 : 60 b/s
Count of elements                        : 1079
Stream size                              : 43.5 KiB (0%)
Title                                    : Czech
Language                                 : Czech
Default                                  : No
Forced                                   : No

Text #5
ID                                       : 7
Format                                   : UTF-8
Codec ID                                 : S_TEXT/UTF8
Codec ID/Info                            : UTF-8 Plain Text
Duration                                 : 1 h 38 min
Bit rate                                 : 52 b/s
Count of elements                        : 1079
Stream size                              : 37.7 KiB (0%)
Title                                    : Danish
Language                                 : Danish
Default                                  : No
Forced                                   : No

Text #6
ID                                       : 8
Format                                   : UTF-8
Codec ID                                 : S_TEXT/UTF8
Codec ID/Info                            : UTF-8 Plain Text
Duration                                 : 1 h 38 min
Bit rate                                 : 55 b/s
Count of elements                        : 1071
Stream size                              : 40.2 KiB (0%)
Title                                    : Dutch
Language                                 : Dutch
Default                                  : No
Forced                                   : No

Text #7
ID                                       : 9
Format                                   : UTF-8
Codec ID                                 : S_TEXT/UTF8
Codec ID/Info                            : UTF-8 Plain Text
Duration                                 : 1 h 38 min
Bit rate                                 : 57 b/s
Count of elements                        : 1079
Stream size                              : 41.2 KiB (0%)
Title                                    : Finnish
Language                                 : Finnish
Default                                  : No
Forced                                   : No

Text #8
ID                                       : 10
Format                                   : UTF-8
Codec ID                                 : S_TEXT/UTF8
Codec ID/Info                            : UTF-8 Plain Text
Duration                                 : 1 h 38 min
Bit rate                                 : 59 b/s
Count of elements                        : 1079
Stream size                              : 43.0 KiB (0%)
Title                                    : French
Language                                 : French
Default                                  : No
Forced                                   : No

Text #9
ID                                       : 11
Format                                   : UTF-8
Codec ID                                 : S_TEXT/UTF8
Codec ID/Info                            : UTF-8 Plain Text
Duration                                 : 1 h 38 min
Bit rate                                 : 66 b/s
Count of elements                        : 1320
Stream size                              : 47.6 KiB (0%)
Title                                    : Portuguese
Language                                 : Portuguese
Default                                  : No
Forced                                   : No

Text #10
ID                                       : 12
Format                                   : UTF-8
Codec ID                                 : S_TEXT/UTF8
Codec ID/Info                            : UTF-8 Plain Text
Duration                                 : 1 h 40 min
Bit rate                                 : 56 b/s
Count of elements                        : 1080
Stream size                              : 41.6 KiB (0%)
Title                                    : Spanish
Language                                 : Spanish
Default                                  : No
Forced                                   : No

Text #11
ID                                       : 13
Format                                   : UTF-8
Codec ID                                 : S_TEXT/UTF8
Codec ID/Info                            : UTF-8 Plain Text
Duration                                 : 1 h 38 min
Bit rate                                 : 54 b/s
Count of elements                        : 1079
Stream size                              : 39.6 KiB (0%)
Title                                    : Swedish
Language                                 : Swedish
Default                                  : No
Forced                                   : No

Text #12
ID                                       : 14
Format                                   : UTF-8
Codec ID                                 : S_TEXT/UTF8
Codec ID/Info                            : UTF-8 Plain Text
Duration                                 : 1 h 38 min
Bit rate                                 : 57 b/s
Count of elements                        : 1079
Stream size                              : 41.7 KiB (0%)
Title                                    : Turkish
Language                                 : Turkish
Default                                  : No
Forced                                   : No

Menu
00:00:00.000                             : en:The Heat Is On
00:10:58.491                             : en:Mikey
00:19:31.670                             : en:Beverly Hills Cop
00:36:03.578                             : en:Banannas
00:45:07.163                             : en:Inspector Foley
00:49:28.841                             : en:Super Cops
00:58:39.599                             : en:Picnic
01:13:16.100                             : en:Surprises
01:23:22.664                             : en:Serious Trouble
01:38:28.194                             : en:The Perfect Place
01:41:04.433                             : en:End Credits

avatar
resplandor
Novato Pro
Novato Pro

Mensajes : 268
Fecha de inscripción : 12/07/2015

Volver arriba Ir abajo

Re: Policia de Beverly Hills (Beverly Hills Cop) (1984) (AC3 2.0/5.1) [Latino Original y ReDoblaje]

Mensaje por bronson1988 el Vie Nov 17, 2017 5:42 pm

link del 1er doblaje caído.

bronson1988
Novato
Novato

Mensajes : 6
Fecha de inscripción : 26/07/2015

Volver arriba Ir abajo

Re: Policia de Beverly Hills (Beverly Hills Cop) (1984) (AC3 2.0/5.1) [Latino Original y ReDoblaje]

Mensaje por Contenido patrocinado


Contenido patrocinado


Volver arriba Ir abajo

Ver el tema anterior Ver el tema siguiente Volver arriba

- Temas similares

 
Permisos de este foro:
No puedes responder a temas en este foro.