6 Days (2017) "6 Días" [AC3 5.1] [OPENLOAD]

Página 1 de 2. 1, 2  Siguiente

Ver el tema anterior Ver el tema siguiente Ir abajo

6 Days (2017) "6 Días" [AC3 5.1] [OPENLOAD]

Mensaje por Jar26SJ el Mar Nov 07, 2017 11:26 am

6 Days (2017)
6 Días (2017)


MediaInfo
Código:
General
Format : AC-3
Format/Info : Audio Coding 3
File size : 303 MiB
Duration : 1 h 34 min
Overall bit rate mode : Constant
Overall bit rate : 448 kb/s

Audio
Format : AC-3
Format/Info : Audio Coding 3
Mode extension : CM (complete main)
Format settings, Endianness : Big
Duration : 1 h 34 min
Bit rate mode : Constant
Bit rate : 448 kb/s
Channel(s) : 6 channels
Channel positions : Front: L C R, Side: L R, LFE
Sampling rate : 48.0 kHz
Frame rate : 31.250 FPS (1536 spf)
Bit depth : 16 bits
Compression mode : Lossy
Stream size : 303 MiB (100%)
Comentar para ver link


Última edición por Jar26SJ el Mar Nov 07, 2017 11:54 am, editado 1 vez

Jar26SJ
Novato Pro
Novato Pro

Mensajes : 155
Fecha de inscripción : 26/06/2016
Edad : 26

Volver arriba Ir abajo

Re: 6 Days (2017) "6 Días" [AC3 5.1] [OPENLOAD]

Mensaje por wladimirs el Mar Nov 07, 2017 11:49 am

Gracias...

wladimirs
Novato
Novato

Mensajes : 24
Fecha de inscripción : 13/01/2014

Volver arriba Ir abajo

Re: 6 Days (2017) "6 Días" [AC3 5.1] [OPENLOAD]

Mensaje por 1849oeste el Mar Nov 07, 2017 1:10 pm

buen trabajo

1849oeste
Novato
Novato

Mensajes : 56
Fecha de inscripción : 16/11/2014

Volver arriba Ir abajo

Re: 6 Days (2017) "6 Días" [AC3 5.1] [OPENLOAD]

Mensaje por weydogg el Mar Nov 07, 2017 1:22 pm

Muchas gracias

weydogg
Novato
Novato

Mensajes : 6
Fecha de inscripción : 26/09/2017

Volver arriba Ir abajo

Re: 6 Days (2017) "6 Días" [AC3 5.1] [OPENLOAD]

Mensaje por eltentador el Mar Nov 07, 2017 4:58 pm

gracias por el audio

eltentador
Novato
Novato

Mensajes : 33
Fecha de inscripción : 13/12/2014

Volver arriba Ir abajo

Re: 6 Days (2017) "6 Días" [AC3 5.1] [OPENLOAD]

Mensaje por fsolaiza el Mar Nov 07, 2017 6:10 pm

Muchas gracias por el aporte°

fsolaiza
Novato
Novato

Mensajes : 2
Fecha de inscripción : 06/11/2017

Volver arriba Ir abajo

Gracias por tu aporte...

Mensaje por Romina Rivera 19 el Mar Nov 07, 2017 8:04 pm

Jar26SJ escribió:
6 Days (2017)
6 Días (2017)


MediaInfo
Código:
General
Format : AC-3
Format/Info : Audio Coding 3
File size : 303 MiB
Duration : 1 h 34 min
Overall bit rate mode : Constant
Overall bit rate : 448 kb/s

Audio
Format : AC-3
Format/Info : Audio Coding 3
Mode extension : CM (complete main)
Format settings, Endianness : Big
Duration : 1 h 34 min
Bit rate mode : Constant
Bit rate : 448 kb/s
Channel(s) : 6 channels
Channel positions : Front: L C R, Side: L R, LFE
Sampling rate : 48.0 kHz
Frame rate : 31.250 FPS (1536 spf)
Bit depth : 16 bits
Compression mode : Lossy
Stream size : 303 MiB (100%)
Comentar para ver link

Romina Rivera 19
Novato
Novato

Mensajes : 24
Fecha de inscripción : 11/10/2015

Volver arriba Ir abajo

Re: 6 Days (2017) "6 Días" [AC3 5.1] [OPENLOAD]

Mensaje por cgarcia1097 el Mar Nov 07, 2017 9:37 pm

Gracias pirat pirat pirat

cgarcia1097
Novato
Novato

Mensajes : 32
Fecha de inscripción : 26/07/2017

Volver arriba Ir abajo

Re: 6 Days (2017) "6 Días" [AC3 5.1] [OPENLOAD]

Mensaje por fasan el Mar Nov 07, 2017 9:40 pm

cheers

fasan
Novato
Novato

Mensajes : 37
Fecha de inscripción : 11/11/2014

Volver arriba Ir abajo

Re: 6 Days (2017) "6 Días" [AC3 5.1] [OPENLOAD]

Mensaje por juansaulmorenomoreno el Mar Nov 07, 2017 11:59 pm

muchas gracias

juansaulmorenomoreno
Novato
Novato

Mensajes : 29
Fecha de inscripción : 01/05/2017

Volver arriba Ir abajo

Re: 6 Days (2017) "6 Días" [AC3 5.1] [OPENLOAD]

Mensaje por aubameyang el Miér Nov 08, 2017 6:20 am

Gracias

aubameyang
Novato
Novato

Mensajes : 54
Fecha de inscripción : 24/02/2016

Volver arriba Ir abajo

Re: 6 Days (2017) "6 Días" [AC3 5.1] [OPENLOAD]

Mensaje por peliculashd el Miér Nov 08, 2017 9:00 am

GRACIAS!!!

peliculashd
Novato
Novato

Mensajes : 16
Fecha de inscripción : 18/10/2017

Volver arriba Ir abajo

Re: 6 Days (2017) "6 Días" [AC3 5.1] [OPENLOAD]

Mensaje por jluis710522 el Miér Nov 08, 2017 9:34 am

Observaciones en el tipo de audio??

jluis710522
Novato
Novato

Mensajes : 57
Fecha de inscripción : 18/10/2016

Volver arriba Ir abajo

Re: 6 Days (2017) "6 Días" [AC3 5.1] [OPENLOAD]

Mensaje por DiegoLoco_83 el Miér Nov 08, 2017 2:36 pm

Gran trabajo. Gracias por el aporte ¡sigan así!

DiegoLoco_83
Novato
Novato

Mensajes : 47
Fecha de inscripción : 31/03/2015

Volver arriba Ir abajo

Re: 6 Days (2017) "6 Días" [AC3 5.1] [OPENLOAD]

Mensaje por pac2712 el Miér Nov 08, 2017 8:20 pm

gracias

pac2712
Novato
Novato

Mensajes : 20
Fecha de inscripción : 25/02/2017

Volver arriba Ir abajo

Re: 6 Days (2017) "6 Días" [AC3 5.1] [OPENLOAD]

Mensaje por trevi el Miér Nov 08, 2017 9:46 pm

gracias por el audio

trevi
Novato
Novato

Mensajes : 1
Fecha de inscripción : 05/11/2017

Volver arriba Ir abajo

Re: 6 Days (2017) "6 Días" [AC3 5.1] [OPENLOAD]

Mensaje por EABG el Jue Nov 09, 2017 9:32 am

Gracias
avatar
EABG
Novato
Novato

Mensajes : 6
Fecha de inscripción : 15/05/2017
Edad : 19

Volver arriba Ir abajo

Re: 6 Days (2017) "6 Días" [AC3 5.1] [OPENLOAD]

Mensaje por hmcand el Jue Nov 09, 2017 6:27 pm

Smile Smile

hmcand
Novato
Novato

Mensajes : 2
Fecha de inscripción : 26/12/2015

Volver arriba Ir abajo

Re: 6 Days (2017) "6 Días" [AC3 5.1] [OPENLOAD]

Mensaje por Juvo el Vie Nov 10, 2017 8:59 am

ty Very Happy

Juvo
Novato
Novato

Mensajes : 41
Fecha de inscripción : 08/11/2016

Volver arriba Ir abajo

Re: 6 Days (2017) "6 Días" [AC3 5.1] [OPENLOAD]

Mensaje por Pablo RC el Vie Nov 10, 2017 10:54 am

gracias

Pablo RC
Novato
Novato

Mensajes : 20
Fecha de inscripción : 10/11/2017

Volver arriba Ir abajo

Re: 6 Days (2017) "6 Días" [AC3 5.1] [OPENLOAD]

Mensaje por fabixd el Vie Nov 10, 2017 6:44 pm

Gracias!!

fabixd
Novato
Novato

Mensajes : 30
Fecha de inscripción : 08/06/2014

Volver arriba Ir abajo

Re: 6 Days (2017) "6 Días" [AC3 5.1] [OPENLOAD]

Mensaje por 1978colocolo el Sáb Nov 11, 2017 11:33 am

gracias

1978colocolo
Novato
Novato

Mensajes : 4
Fecha de inscripción : 18/04/2017

Volver arriba Ir abajo

Re: 6 Days (2017) "6 Días" [AC3 5.1] [OPENLOAD]

Mensaje por Legionario60 el Dom Nov 12, 2017 7:48 am

Gracias

Legionario60
Novato
Novato

Mensajes : 6
Fecha de inscripción : 02/09/2016

Volver arriba Ir abajo

Re: 6 Days (2017) "6 Días" [AC3 5.1] [OPENLOAD]

Mensaje por axeldna el Dom Nov 12, 2017 3:20 pm

Gran aporte, es necesario algun delay sobre alguna version BluRay?

axeldna
Novato
Novato

Mensajes : 29
Fecha de inscripción : 12/10/2014

Volver arriba Ir abajo

Re: 6 Days (2017) "6 Días" [AC3 5.1] [OPENLOAD]

Mensaje por ELVIO el Lun Nov 13, 2017 11:10 am

Gracias por el aporte

ELVIO
Novato
Novato

Mensajes : 30
Fecha de inscripción : 19/05/2016

Volver arriba Ir abajo

Re: 6 Days (2017) "6 Días" [AC3 5.1] [OPENLOAD]

Mensaje por Contenido patrocinado


Contenido patrocinado


Volver arriba Ir abajo

Página 1 de 2. 1, 2  Siguiente

Ver el tema anterior Ver el tema siguiente Volver arriba


 
Permisos de este foro:
No puedes responder a temas en este foro.