Jeepers Creepers 3 (2017) [AC3 2.0] [AUDIO LINE] [MEGA]

Página 1 de 5. 1, 2, 3, 4, 5  Siguiente

Ver el tema anterior Ver el tema siguiente Ir abajo

Jeepers Creepers 3 (2017) [AC3 2.0] [AUDIO LINE] [MEGA]

Mensaje por Jar26SJ el Vie Nov 10, 2017 3:08 pm

Jeepers Creepers 3 (2017)

MediaInfo:
Código:
Audio
Format                      : AC-3
Format/Info                 : Audio Coding 3
Format settings, Endianness : Big
Duration                    : 1 h 25 min
Bit rate mode               : Constant
Bit rate                    : 192 kb/s
Channel(s)                  : 2 channels
Channel positions           : Front: L R
Sampling rate               : 48.0 kHz
Frame rate                  : 31.250 FPS (1536 SPF)
Bit depth                   : 16 bits
Compression mode            : Lossy
Stream size                 : 117 MiB (100%)
Service kind                : Complete Main
Comentar para ver el link.

Postdata: Como el titulo lo dice es Audio Line, este audio fue adaptado para versiones HDTV.


Última edición por Jar26SJ el Vie Dic 15, 2017 3:03 am, editado 2 veces
avatar
Jar26SJ
Novato Pro
Novato Pro

Mensajes : 274
Fecha de inscripción : 26/06/2016
Edad : 26

http://thefuturetechno.blogspot.es/

Volver arriba Ir abajo

Re: Jeepers Creepers 3 (2017) [AC3 2.0] [AUDIO LINE] [MEGA]

Mensaje por hanzo1 el Vie Nov 10, 2017 3:09 pm

gracias por tu aporte y apoyo
sigue asi animooo!!!

hanzo1
Novato
Novato

Mensajes : 3
Fecha de inscripción : 23/07/2017

Volver arriba Ir abajo

Re: Jeepers Creepers 3 (2017) [AC3 2.0] [AUDIO LINE] [MEGA]

Mensaje por arturo75 el Vie Nov 10, 2017 3:47 pm

gracias

arturo75
Novato
Novato

Mensajes : 37
Fecha de inscripción : 17/07/2015

Volver arriba Ir abajo

Re: Jeepers Creepers 3 (2017) [AC3 2.0] [AUDIO LINE] [MEGA]

Mensaje por meredeitor el Vie Nov 10, 2017 5:06 pm

gracias

meredeitor
Novato
Novato

Mensajes : 34
Fecha de inscripción : 11/09/2017

Volver arriba Ir abajo

Re: Jeepers Creepers 3 (2017) [AC3 2.0] [AUDIO LINE] [MEGA]

Mensaje por loco3185 el Vie Nov 10, 2017 5:13 pm

gracias

loco3185
Novato
Novato

Mensajes : 16
Fecha de inscripción : 14/06/2017

Volver arriba Ir abajo

Re: Jeepers Creepers 3 (2017) [AC3 2.0] [AUDIO LINE] [MEGA]

Mensaje por palordpanci el Vie Nov 10, 2017 7:09 pm

hanzo1 escribió:gracias por tu aporte y apoyo
sigue asi animooo!!!
Smile

palordpanci
Novato
Novato

Mensajes : 8
Fecha de inscripción : 05/09/2016

Volver arriba Ir abajo

Re: Jeepers Creepers 3 (2017) [AC3 2.0] [AUDIO LINE] [MEGA]

Mensaje por thedaleksec el Vie Nov 10, 2017 7:16 pm

gracias por el aportazo

thedaleksec
Novato
Novato

Mensajes : 12
Fecha de inscripción : 05/05/2017

Volver arriba Ir abajo

Re: Jeepers Creepers 3 (2017) [AC3 2.0] [AUDIO LINE] [MEGA]

Mensaje por dilmersito el Vie Nov 10, 2017 7:21 pm

GRACIAS

dilmersito
Novato
Novato

Mensajes : 45
Fecha de inscripción : 26/05/2016

Volver arriba Ir abajo

Re: Jeepers Creepers 3 (2017) [AC3 2.0] [AUDIO LINE] [MEGA]

Mensaje por logic3318 el Vie Nov 10, 2017 7:24 pm

muchas gracias!

logic3318
Novato
Novato

Mensajes : 30
Fecha de inscripción : 14/03/2017

Volver arriba Ir abajo

Re: Jeepers Creepers 3 (2017) [AC3 2.0] [AUDIO LINE] [MEGA]

Mensaje por crimson56cp el Vie Nov 10, 2017 7:26 pm

GRACIAS!!!!!

crimson56cp
Novato
Novato

Mensajes : 60
Fecha de inscripción : 06/12/2014

Volver arriba Ir abajo

Gracias por tu aporte...

Mensaje por Romina Rivera 19 el Vie Nov 10, 2017 8:16 pm

Jar26SJ escribió:[center]Jeepers Creepers 3 (2017)

MediaInfo:
Código:
Audio
Format                      : AC-3
Format/Info                 : Audio Coding 3
Format settings, Endianness : Big
Duration                    : 1 h 25 min
Bit rate mode               : Constant
Bit rate                    : 192 kb/s
Channel(s)                  : 2 channels
Channel positions           : Front: L R
Sampling rate               : 48.0 kHz
Frame rate                  : 31.250 FPS (1536 SPF)
Bit depth                   : 16 bits
Compression mode            : Lossy
Stream size                 : 117 MiB (100%)
Service kind                : Complete Main
Comentar para ver el link.

Postdata: Como el titulo lo dice es Audio Line, este audio fue adaptado para versiones HDTV

Romina Rivera 19
Novato
Novato

Mensajes : 28
Fecha de inscripción : 11/10/2015

Volver arriba Ir abajo

Re: Jeepers Creepers 3 (2017) [AC3 2.0] [AUDIO LINE] [MEGA]

Mensaje por piratasdelcaribe el Vie Nov 10, 2017 8:26 pm

Gracias por el aporte.

piratasdelcaribe
Novato
Novato

Mensajes : 96
Fecha de inscripción : 13/03/2016

Volver arriba Ir abajo

Re: Jeepers Creepers 3 (2017) [AC3 2.0] [AUDIO LINE] [MEGA]

Mensaje por dannyrsb el Vie Nov 10, 2017 8:54 pm

gracias

dannyrsb
Novato
Novato

Mensajes : 19
Fecha de inscripción : 17/02/2015

Volver arriba Ir abajo

Re: Jeepers Creepers 3 (2017) [AC3 2.0] [AUDIO LINE] [MEGA]

Mensaje por apophis el Vie Nov 10, 2017 9:20 pm

¡Genial! Muchas gracias. No puedo esperar más para verla.
avatar
apophis
Novato
Novato

Mensajes : 37
Fecha de inscripción : 31/01/2015

Volver arriba Ir abajo

Re: Jeepers Creepers 3 (2017) [AC3 2.0] [AUDIO LINE] [MEGA]

Mensaje por puky22 el Vie Nov 10, 2017 11:45 pm

Gracias

puky22
Novato
Novato

Mensajes : 2
Fecha de inscripción : 04/08/2016

Volver arriba Ir abajo

Re: Jeepers Creepers 3 (2017) [AC3 2.0] [AUDIO LINE] [MEGA]

Mensaje por washington t el Sáb Nov 11, 2017 8:10 am

gracias

washington t
Novato
Novato

Mensajes : 50
Fecha de inscripción : 07/08/2015

Volver arriba Ir abajo

Re: Jeepers Creepers 3 (2017) [AC3 2.0] [AUDIO LINE] [MEGA]

Mensaje por guty34 el Sáb Nov 11, 2017 8:33 am

gracias

guty34
Novato Avanzado
Novato Avanzado

Mensajes : 142
Fecha de inscripción : 18/07/2016

Volver arriba Ir abajo

Re: Jeepers Creepers 3 (2017) [AC3 2.0] [AUDIO LINE] [MEGA]

Mensaje por dimauri19 el Sáb Nov 11, 2017 10:21 am

Gracias

dimauri19
Novato
Novato

Mensajes : 1
Fecha de inscripción : 01/09/2015

Volver arriba Ir abajo

Re: Jeepers Creepers 3 (2017) [AC3 2.0] [AUDIO LINE] [MEGA]

Mensaje por gadielmid el Sáb Nov 11, 2017 12:42 pm

gracias

gadielmid
Novato
Novato

Mensajes : 1
Fecha de inscripción : 11/11/2017

Volver arriba Ir abajo

Re: Jeepers Creepers 3 (2017) [AC3 2.0] [AUDIO LINE] [MEGA]

Mensaje por ngeta007 el Sáb Nov 11, 2017 1:37 pm

gracias

ngeta007
Novato
Novato

Mensajes : 51
Fecha de inscripción : 04/04/2014

Volver arriba Ir abajo

Re: Jeepers Creepers 3 (2017) [AC3 2.0] [AUDIO LINE] [MEGA]

Mensaje por Pablo RC el Sáb Nov 11, 2017 1:52 pm

gracias

Pablo RC
Novato
Novato

Mensajes : 44
Fecha de inscripción : 10/11/2017

Volver arriba Ir abajo

Jeepers Creepers 3 (2017) [AC3 2.0] [AUDIO LINE] [MEGA]

Mensaje por cachitoz el Sáb Nov 11, 2017 1:59 pm

Gracias por el aporte...!!!

cachitoz
Novato
Novato

Mensajes : 20
Fecha de inscripción : 17/10/2014
Edad : 37

Volver arriba Ir abajo

Re: Jeepers Creepers 3 (2017) [AC3 2.0] [AUDIO LINE] [MEGA]

Mensaje por overdead el Sáb Nov 11, 2017 2:47 pm

Tnks!!

overdead
Novato
Novato

Mensajes : 39
Fecha de inscripción : 20/05/2016

Volver arriba Ir abajo

Re: Jeepers Creepers 3 (2017) [AC3 2.0] [AUDIO LINE] [MEGA]

Mensaje por zhingre el Sáb Nov 11, 2017 3:51 pm

gracias

zhingre
Novato
Novato

Mensajes : 5
Fecha de inscripción : 29/08/2014

Volver arriba Ir abajo

Re: Jeepers Creepers 3 (2017) [AC3 2.0] [AUDIO LINE] [MEGA]

Mensaje por arturo75 el Sáb Nov 11, 2017 9:43 pm

bracias

arturo75
Novato
Novato

Mensajes : 37
Fecha de inscripción : 17/07/2015

Volver arriba Ir abajo

Re: Jeepers Creepers 3 (2017) [AC3 2.0] [AUDIO LINE] [MEGA]

Mensaje por Contenido patrocinado


Contenido patrocinado


Volver arriba Ir abajo

Página 1 de 5. 1, 2, 3, 4, 5  Siguiente

Ver el tema anterior Ver el tema siguiente Volver arriba

- Temas similares

 
Permisos de este foro:
No puedes responder a temas en este foro.