Wind River (2017) "Muerte Misteriosa" [AC3 2.0] [DVD-Rip] [MEGA]

Página 2 de 7. Precedente  1, 2, 3, 4, 5, 6, 7  Siguiente

Ir abajo

Re: Wind River (2017) "Muerte Misteriosa" [AC3 2.0] [DVD-Rip] [MEGA]

Mensaje por loco3185 el Sáb Nov 25, 2017 3:01 pm

gracias

loco3185
Novato
Novato

Mensajes : 43
Fecha de inscripción : 14/06/2017

Volver arriba Ir abajo

Re: Wind River (2017) "Muerte Misteriosa" [AC3 2.0] [DVD-Rip] [MEGA]

Mensaje por pilicat el Sáb Nov 25, 2017 3:33 pm

exelente

pilicat
Novato
Novato

Mensajes : 16
Fecha de inscripción : 21/06/2017

Volver arriba Ir abajo

Re: Wind River (2017) "Muerte Misteriosa" [AC3 2.0] [DVD-Rip] [MEGA]

Mensaje por hectoraps el Sáb Nov 25, 2017 6:04 pm

gracias por el aporte

Pero el Link es casi imposible obtenerlo para descargar....

hectoraps
Novato
Novato

Mensajes : 72
Fecha de inscripción : 21/03/2015

Volver arriba Ir abajo

Re: Wind River (2017) "Muerte Misteriosa" [AC3 2.0] [DVD-Rip] [MEGA]

Mensaje por MrPreto el Sáb Nov 25, 2017 6:35 pm

Muchas gracias!!
avatar
MrPreto
Novato
Novato

Mensajes : 46
Fecha de inscripción : 15/03/2017

Volver arriba Ir abajo

Re: Wind River (2017) "Muerte Misteriosa" [AC3 2.0] [DVD-Rip] [MEGA]

Mensaje por Ever64 el Sáb Nov 25, 2017 7:17 pm

Muchas gracias

Ever64
Novato Pro
Novato Pro

Mensajes : 242
Fecha de inscripción : 03/11/2016

Volver arriba Ir abajo

Re: Wind River (2017) "Muerte Misteriosa" [AC3 2.0] [DVD-Rip] [MEGA]

Mensaje por DANIELFRAGA el Sáb Nov 25, 2017 7:58 pm

gracias espero y no se line.

DANIELFRAGA
Novato Pro
Novato Pro

Mensajes : 210
Fecha de inscripción : 09/05/2014

Volver arriba Ir abajo

Re: Wind River (2017) "Muerte Misteriosa" [AC3 2.0] [DVD-Rip] [MEGA]

Mensaje por jafs el Sáb Nov 25, 2017 7:59 pm

Muchas Gracias

jafs
Novato
Novato

Mensajes : 27
Fecha de inscripción : 31/10/2014

Volver arriba Ir abajo

Re: Wind River (2017) "Muerte Misteriosa" [AC3 2.0] [DVD-Rip] [MEGA]

Mensaje por makrakchimba el Sáb Nov 25, 2017 8:09 pm

gracias totales

makrakchimba
Novato Avanzado
Novato Avanzado

Mensajes : 120
Fecha de inscripción : 24/10/2016

Volver arriba Ir abajo

Re: Wind River (2017) "Muerte Misteriosa" [AC3 2.0] [DVD-Rip] [MEGA]

Mensaje por rafaga2015 el Sáb Nov 25, 2017 8:32 pm

Muchas Gracias!

rafaga2015
Novato
Novato

Mensajes : 63
Fecha de inscripción : 25/03/2016

Volver arriba Ir abajo

Re: Wind River (2017) "Muerte Misteriosa" [AC3 2.0] [DVD-Rip] [MEGA]

Mensaje por nefeshlin el Sáb Nov 25, 2017 8:38 pm

Genial

nefeshlin
Novato
Novato

Mensajes : 10
Fecha de inscripción : 11/10/2017

Volver arriba Ir abajo

Gracias por tu aporte...

Mensaje por Romina Rivera 19 el Sáb Nov 25, 2017 8:57 pm

Jar26SJ escribió:
Wind River (2017)
Muerte Misteriosa (2017)


MediaInfo:
Código:
Audio
Format : AC-3
Format/Info : Audio Coding 3
Duration : 1 h 46 min
Bit rate mode : Constant
Bit rate : 192 kb/s
Channel(s) : 2 channels
Channel positions : Front: L R
Sampling rate : 48.0 kHz
Frame rate : 31.250 FPS (1536 SPF)
Bit depth : 16 bits
Compression mode : Lossy
Stream size : 147 MiB (100%)
Service kind : Complete Main
Comentar para ver el link!

Romina Rivera 19
Novato
Novato

Mensajes : 73
Fecha de inscripción : 11/10/2015

Volver arriba Ir abajo

Re: Wind River (2017) "Muerte Misteriosa" [AC3 2.0] [DVD-Rip] [MEGA]

Mensaje por fabixd el Sáb Nov 25, 2017 9:12 pm

Gracias!!

fabixd
Novato
Novato

Mensajes : 46
Fecha de inscripción : 08/06/2014

Volver arriba Ir abajo

Gracias

Mensaje por vani1968 el Sáb Nov 25, 2017 10:16 pm

Gracias

vani1968
Novato
Novato

Mensajes : 2
Fecha de inscripción : 02/07/2016

Volver arriba Ir abajo

Re: Wind River (2017) "Muerte Misteriosa" [AC3 2.0] [DVD-Rip] [MEGA]

Mensaje por leonardojuv el Sáb Nov 25, 2017 10:44 pm

gracias

leonardojuv
Novato
Novato

Mensajes : 41
Fecha de inscripción : 23/08/2017

Volver arriba Ir abajo

Re: Wind River (2017) "Muerte Misteriosa" [AC3 2.0] [DVD-Rip] [MEGA]

Mensaje por maximilianh75@gmail.com el Sáb Nov 25, 2017 11:57 pm

gracias

maximilianh75@gmail.com
Novato Pro
Novato Pro

Mensajes : 160
Fecha de inscripción : 02/12/2016

Volver arriba Ir abajo

Re: Wind River (2017) "Muerte Misteriosa" [AC3 2.0] [DVD-Rip] [MEGA]

Mensaje por overdead el Dom Nov 26, 2017 12:05 am

tnks

overdead
Novato Pro
Novato Pro

Mensajes : 198
Fecha de inscripción : 20/05/2016

Volver arriba Ir abajo

Gracias

Mensaje por Daniel47 el Dom Nov 26, 2017 9:43 am

Jar26SJ escribió:
Wind River (2017)
Muerte Misteriosa (2017)


MediaInfo:
Código:
Audio
Format : AC-3
Format/Info : Audio Coding 3
Duration : 1 h 46 min
Bit rate mode : Constant
Bit rate : 192 kb/s
Channel(s) : 2 channels
Channel positions : Front: L R
Sampling rate : 48.0 kHz
Frame rate : 31.250 FPS (1536 SPF)
Bit depth : 16 bits
Compression mode : Lossy
Stream size : 147 MiB (100%)
Service kind : Complete Main
Comentar para ver el link!

Daniel47
Novato
Novato

Mensajes : 39
Fecha de inscripción : 11/10/2017

Volver arriba Ir abajo

Re: Wind River (2017) "Muerte Misteriosa" [AC3 2.0] [DVD-Rip] [MEGA]

Mensaje por Daniel47 el Dom Nov 26, 2017 9:43 am

Gracias

Daniel47
Novato
Novato

Mensajes : 39
Fecha de inscripción : 11/10/2017

Volver arriba Ir abajo

Re: Wind River (2017) "Muerte Misteriosa" [AC3 2.0] [DVD-Rip] [MEGA]

Mensaje por Daniel47 el Dom Nov 26, 2017 10:39 am

Gracias por el audio

Daniel47
Novato
Novato

Mensajes : 39
Fecha de inscripción : 11/10/2017

Volver arriba Ir abajo

Wind River (2017) "Muerte Misteriosa" [AC3 2.0] [DVD-Rip] [MEGA/OPENLOAD]

Mensaje por cachitoz el Dom Nov 26, 2017 10:52 am

Muchas gracias por el aporte!.

cachitoz
Novato
Novato

Mensajes : 23
Fecha de inscripción : 17/10/2014
Edad : 38

Volver arriba Ir abajo

Wind River (2017) "Muerte Misteriosa" [AC3 2.0] [DVD-Rip] [MEGA/OPENLOAD]

Mensaje por cachitoz el Dom Nov 26, 2017 10:53 am

Jar26SJ escribió:
Wind River (2017)
Muerte Misteriosa (2017)


MediaInfo:
Código:
Audio
Format : AC-3
Format/Info : Audio Coding 3
Duration : 1 h 46 min
Bit rate mode : Constant
Bit rate : 192 kb/s
Channel(s) : 2 channels
Channel positions : Front: L R
Sampling rate : 48.0 kHz
Frame rate : 31.250 FPS (1536 SPF)
Bit depth : 16 bits
Compression mode : Lossy
Stream size : 147 MiB (100%)
Service kind : Complete Main
Comentar para ver el link!

Gracias!!

cachitoz
Novato
Novato

Mensajes : 23
Fecha de inscripción : 17/10/2014
Edad : 38

Volver arriba Ir abajo

Wind River (2017) "Muerte Misteriosa" [AC3 2.0] [DVD-Rip] [MEGA/OPENLOAD]

Mensaje por cachitoz el Dom Nov 26, 2017 10:54 am

Jar26SJ escribió:
Wind River (2017)
Muerte Misteriosa (2017)


MediaInfo:
Código:
Audio
Format : AC-3
Format/Info : Audio Coding 3
Duration : 1 h 46 min
Bit rate mode : Constant
Bit rate : 192 kb/s
Channel(s) : 2 channels
Channel positions : Front: L R
Sampling rate : 48.0 kHz
Frame rate : 31.250 FPS (1536 SPF)
Bit depth : 16 bits
Compression mode : Lossy
Stream size : 147 MiB (100%)
Service kind : Complete Main
Comentar para ver el link!

Gracias!!

cachitoz
Novato
Novato

Mensajes : 23
Fecha de inscripción : 17/10/2014
Edad : 38

Volver arriba Ir abajo

Re: Wind River (2017) "Muerte Misteriosa" [AC3 2.0] [DVD-Rip] [MEGA]

Mensaje por kornelio99 el Dom Nov 26, 2017 11:47 am

muy buena peli

kornelio99
Novato Pro
Novato Pro

Mensajes : 235
Fecha de inscripción : 06/08/2014

Volver arriba Ir abajo

esperando bajar

Mensaje por juanmeca el Dom Nov 26, 2017 12:27 pm

Jar26SJ escribió:
Wind River (2017)
Muerte Misteriosa (2017)


MediaInfo:
Código:
Audio
Format : AC-3
Format/Info : Audio Coding 3
Duration : 1 h 46 min
Bit rate mode : Constant
Bit rate : 192 kb/s
Channel(s) : 2 channels
Channel positions : Front: L R
Sampling rate : 48.0 kHz
Frame rate : 31.250 FPS (1536 SPF)
Bit depth : 16 bits
Compression mode : Lossy
Stream size : 147 MiB (100%)
Service kind : Complete Main
Comentar para ver el link!

juanmeca
Novato
Novato

Mensajes : 15
Fecha de inscripción : 11/09/2016

Volver arriba Ir abajo

Re: Wind River (2017) "Muerte Misteriosa" [AC3 2.0] [DVD-Rip] [MEGA]

Mensaje por juanmeca el Dom Nov 26, 2017 12:28 pm

esperando bajar

juanmeca
Novato
Novato

Mensajes : 15
Fecha de inscripción : 11/09/2016

Volver arriba Ir abajo

Re: Wind River (2017) "Muerte Misteriosa" [AC3 2.0] [DVD-Rip] [MEGA]

Mensaje por Contenido patrocinado


Contenido patrocinado


Volver arriba Ir abajo

Página 2 de 7. Precedente  1, 2, 3, 4, 5, 6, 7  Siguiente

Volver arriba

- Temas similares

 
Permisos de este foro:
No puedes responder a temas en este foro.