American Assassin (2017) "Asesino: Misión Venganza" [AC3 5.1] [DVD-Rip] [MEDIAFIRE]

Página 1 de 6. 1, 2, 3, 4, 5, 6  Siguiente

Ver el tema anterior Ver el tema siguiente Ir abajo

American Assassin (2017) "Asesino: Misión Venganza" [AC3 5.1] [DVD-Rip] [MEDIAFIRE]

Mensaje por Jar26SJ el Dom Nov 26, 2017 11:07 am

American Assassin (2017)
Asesino: Misión Venganza (2017)


MediaInfo:
Código:
Audio
Format                                   : AC-3
Format/Info                              : Audio Coding 3
Format settings, Endianness              : Big
Duration                                 : 1 h 51 min
Bit rate mode                            : Constant
Bit rate                                 : 448 kb/s
Channel(s)                               : 6 channels
Channel positions                        : Front: L C R, Side: L R, LFE
Sampling rate                            : 48.0 kHz
Frame rate                               : 31.250 FPS (1536 SPF)
Bit depth                                : 16 bits
Compression mode                         : Lossy
Stream size                              : 358 MiB (100%)
Service kind                             : Complete Main
Comentar para ver el link!


Última edición por Jar26SJ el Vie Dic 15, 2017 12:11 am, editado 1 vez
avatar
Jar26SJ
Novato Pro
Novato Pro

Mensajes : 274
Fecha de inscripción : 26/06/2016
Edad : 26

http://thefuturetechno.blogspot.es/

Volver arriba Ir abajo

Re: American Assassin (2017) "Asesino: Misión Venganza" [AC3 5.1] [DVD-Rip] [MEDIAFIRE]

Mensaje por getxcorp el Dom Nov 26, 2017 11:16 am

Comento para ver el linnk....

MEDIAFIRE????

getxcorp
Novato
Novato

Mensajes : 63
Fecha de inscripción : 29/11/2015

Volver arriba Ir abajo

Re: American Assassin (2017) "Asesino: Misión Venganza" [AC3 5.1] [DVD-Rip] [MEDIAFIRE]

Mensaje por lobo solitario el Dom Nov 26, 2017 11:32 am

Razz

lobo solitario
Novato
Novato

Mensajes : 42
Fecha de inscripción : 19/06/2015

Volver arriba Ir abajo

Re: American Assassin (2017) "Asesino: Misión Venganza" [AC3 5.1] [DVD-Rip] [MEDIAFIRE]

Mensaje por alba rodriguez el Dom Nov 26, 2017 11:42 am

gracias

alba rodriguez
Novato
Novato

Mensajes : 15
Fecha de inscripción : 31/07/2017

Volver arriba Ir abajo

Re: American Assassin (2017) "Asesino: Misión Venganza" [AC3 5.1] [DVD-Rip] [MEDIAFIRE]

Mensaje por markito73 el Dom Nov 26, 2017 12:02 pm

gracias por el audio

markito73
Novato
Novato

Mensajes : 52
Fecha de inscripción : 19/07/2014

Volver arriba Ir abajo

Re: American Assassin (2017) "Asesino: Misión Venganza" [AC3 5.1] [DVD-Rip] [MEDIAFIRE]

Mensaje por gustavo5 el Dom Nov 26, 2017 12:07 pm

vamos a ver

gustavo5
Novato
Novato

Mensajes : 1
Fecha de inscripción : 26/11/2017

Volver arriba Ir abajo

Re: American Assassin (2017) "Asesino: Misión Venganza" [AC3 5.1] [DVD-Rip] [MEDIAFIRE]

Mensaje por jdc0678 el Dom Nov 26, 2017 12:14 pm

gracias. se ve buena

jdc0678
Novato
Novato

Mensajes : 18
Fecha de inscripción : 26/09/2017

Volver arriba Ir abajo

Re: American Assassin (2017) "Asesino: Misión Venganza" [AC3 5.1] [DVD-Rip] [MEDIAFIRE]

Mensaje por rosenthal el Dom Nov 26, 2017 12:17 pm

gracias

rosenthal
Novato
Novato

Mensajes : 37
Fecha de inscripción : 27/03/2017

Volver arriba Ir abajo

Re: American Assassin (2017) "Asesino: Misión Venganza" [AC3 5.1] [DVD-Rip] [MEDIAFIRE]

Mensaje por smartjr el Dom Nov 26, 2017 12:58 pm

gracias
avatar
smartjr
Novato
Novato

Mensajes : 46
Fecha de inscripción : 18/06/2016

Volver arriba Ir abajo

Re: American Assassin (2017) "Asesino: Misión Venganza" [AC3 5.1] [DVD-Rip] [MEDIAFIRE]

Mensaje por sevenmaniaco el Dom Nov 26, 2017 1:12 pm

gracias Very Happy

sevenmaniaco
Novato
Novato

Mensajes : 10
Fecha de inscripción : 21/10/2016

Volver arriba Ir abajo

Re: American Assassin (2017) "Asesino: Misión Venganza" [AC3 5.1] [DVD-Rip] [MEDIAFIRE]

Mensaje por meinleon el Dom Nov 26, 2017 2:29 pm

Gracias!

meinleon
Novato
Novato

Mensajes : 38
Fecha de inscripción : 10/02/2017

Volver arriba Ir abajo

Re: American Assassin (2017) "Asesino: Misión Venganza" [AC3 5.1] [DVD-Rip] [MEDIAFIRE]

Mensaje por jlmascoro el Dom Nov 26, 2017 2:46 pm

Buena pelicula

jlmascoro
Novato
Novato

Mensajes : 28
Fecha de inscripción : 05/10/2015
Edad : 38

Volver arriba Ir abajo

Re: American Assassin (2017) "Asesino: Misión Venganza" [AC3 5.1] [DVD-Rip] [MEDIAFIRE]

Mensaje por fanaticocl el Dom Nov 26, 2017 4:53 pm

Gracias.

fanaticocl
Novato
Novato

Mensajes : 11
Fecha de inscripción : 14/09/2014

Volver arriba Ir abajo

Re: American Assassin (2017) "Asesino: Misión Venganza" [AC3 5.1] [DVD-Rip] [MEDIAFIRE]

Mensaje por rafaga2015 el Dom Nov 26, 2017 4:55 pm

Gracias!!

rafaga2015
Novato
Novato

Mensajes : 29
Fecha de inscripción : 25/03/2016

Volver arriba Ir abajo

Re: American Assassin (2017) "Asesino: Misión Venganza" [AC3 5.1] [DVD-Rip] [MEDIAFIRE]

Mensaje por rastorga el Dom Nov 26, 2017 5:44 pm

lol!

rastorga
Novato
Novato

Mensajes : 16
Fecha de inscripción : 28/05/2016

Volver arriba Ir abajo

Re: American Assassin (2017) "Asesino: Misión Venganza" [AC3 5.1] [DVD-Rip] [MEDIAFIRE]

Mensaje por odissey el Dom Nov 26, 2017 6:32 pm

A ver que podemos comentar???

odissey
Novato
Novato

Mensajes : 10
Fecha de inscripción : 18/05/2017

Volver arriba Ir abajo

Re: American Assassin (2017) "Asesino: Misión Venganza" [AC3 5.1] [DVD-Rip] [MEDIAFIRE]

Mensaje por Pablo RC el Dom Nov 26, 2017 6:43 pm

gracias

Pablo RC
Novato
Novato

Mensajes : 44
Fecha de inscripción : 10/11/2017

Volver arriba Ir abajo

Re: American Assassin (2017) "Asesino: Misión Venganza" [AC3 5.1] [DVD-Rip] [MEDIAFIRE]

Mensaje por Johan Nicolas ZabalaReyes el Dom Nov 26, 2017 6:57 pm

Gracias

Johan Nicolas ZabalaReyes
Novato
Novato

Mensajes : 26
Fecha de inscripción : 03/10/2015

Volver arriba Ir abajo

Re: American Assassin (2017) "Asesino: Misión Venganza" [AC3 5.1] [DVD-Rip] [MEDIAFIRE]

Mensaje por pablitofg el Dom Nov 26, 2017 8:32 pm

Gracias

pablitofg
Novato Avanzado
Novato Avanzado

Mensajes : 140
Fecha de inscripción : 12/07/2015

Volver arriba Ir abajo

Re: American Assassin (2017) "Asesino: Misión Venganza" [AC3 5.1] [DVD-Rip] [MEDIAFIRE]

Mensaje por ELVIO el Dom Nov 26, 2017 8:47 pm

gracias

ELVIO
Novato
Novato

Mensajes : 36
Fecha de inscripción : 19/05/2016

Volver arriba Ir abajo

Re: American Assassin (2017) "Asesino: Misión Venganza" [AC3 5.1] [DVD-Rip] [MEDIAFIRE]

Mensaje por pablitofg el Dom Nov 26, 2017 9:06 pm

No se como an descargado este audio,porque yo no e podido,desabilite adblock,me lleva a una pagina y a otra y a otra...en todas haciedo pruebas para saber si eres robot,anuncios y mas anuncios... frizandote el navegador,antivirus gritando auxilioooo....{QUE DIFICIL SE LA PONEN A UNO...}

pablitofg
Novato Avanzado
Novato Avanzado

Mensajes : 140
Fecha de inscripción : 12/07/2015

Volver arriba Ir abajo

Re: American Assassin (2017) "Asesino: Misión Venganza" [AC3 5.1] [DVD-Rip] [MEDIAFIRE]

Mensaje por bodigard el Dom Nov 26, 2017 10:11 pm

gRACias

bodigard
Novato
Novato

Mensajes : 13
Fecha de inscripción : 18/09/2017

Volver arriba Ir abajo

Re: American Assassin (2017) "Asesino: Misión Venganza" [AC3 5.1] [DVD-Rip] [MEDIAFIRE]

Mensaje por MarceloF el Dom Nov 26, 2017 10:37 pm

Muchas gracias por el aporte.

MarceloF
Novato
Novato

Mensajes : 97
Fecha de inscripción : 13/12/2016

Volver arriba Ir abajo

Re: American Assassin (2017) "Asesino: Misión Venganza" [AC3 5.1] [DVD-Rip] [MEDIAFIRE]

Mensaje por lala23 el Lun Nov 27, 2017 12:35 am

Jar26SJ escribió:
American Assassin (2017)
Asesino: Misión Venganza (2017)


MediaInfo:
Código:
Audio
Format                                   : AC-3
Format/Info                              : Audio Coding 3
Format settings, Endianness              : Big
Duration                                 : 1 h 51 min
Bit rate mode                            : Constant
Bit rate                                 : 448 kb/s
Channel(s)                               : 6 channels
Channel positions                        : Front: L C R, Side: L R, LFE
Sampling rate                            : 48.0 kHz
Frame rate                               : 31.250 FPS (1536 SPF)
Bit depth                                : 16 bits
Compression mode                         : Lossy
Stream size                              : 358 MiB (100%)
Service kind                             : Complete Main
Comentar para ver el link!

lala23
Novato
Novato

Mensajes : 11
Fecha de inscripción : 31/10/2017

Volver arriba Ir abajo

Re: American Assassin (2017) "Asesino: Misión Venganza" [AC3 5.1] [DVD-Rip] [MEDIAFIRE]

Mensaje por pablitofg el Lun Nov 27, 2017 2:54 am

Gracias,espero que este si lo pueda descargar,gracias...

pablitofg
Novato Avanzado
Novato Avanzado

Mensajes : 140
Fecha de inscripción : 12/07/2015

Volver arriba Ir abajo

Re: American Assassin (2017) "Asesino: Misión Venganza" [AC3 5.1] [DVD-Rip] [MEDIAFIRE]

Mensaje por Contenido patrocinado


Contenido patrocinado


Volver arriba Ir abajo

Página 1 de 6. 1, 2, 3, 4, 5, 6  Siguiente

Ver el tema anterior Ver el tema siguiente Volver arriba

- Temas similares

 
Permisos de este foro:
No puedes responder a temas en este foro.