Dunkirk (2017) "Dunkerque" [AC3 5.1] [Blu-Ray Rip] [MEGA]

Página 1 de 8. 1, 2, 3, 4, 5, 6, 7, 8  Siguiente

Ver el tema anterior Ver el tema siguiente Ir abajo

Dunkirk (2017) "Dunkerque" [AC3 5.1] [Blu-Ray Rip] [MEGA]

Mensaje por Jar26SJ el Jue Dic 07, 2017 2:41 am

Dunkirk (2017)
Dunkerque (2017)


MediaInfo:
Código:
Audio
Format                                   : AC-3
Format/Info                              : Audio Coding 3
Format settings, Endianness              : Big
Duration                                 : 1 h 46 min
Bit rate mode                            : Constant
Bit rate                                 : 448 kb/s
Channel(s)                               : 6 channels
Channel positions                        : Front: L C R, Side: L R, LFE
Sampling rate                            : 48.0 kHz
Frame rate                               : 31.250 FPS (1536 SPF)
Bit depth                                : 16 bits
Compression mode                         : Lossy
Stream size                              : 342 MiB (100%)
Service kind                             : Complete Main
Agradecer No Cuesta Nada!

¿Cómo Descargar?



Comentar con el link directo INHABILITARÁ AUTOMÁTICAMENTE el enlace hasta nuevo aviso.



Última edición por Jar26SJ el Miér Dic 13, 2017 8:08 pm, editado 5 veces (Razón : ...)
avatar
Jar26SJ
Novato Pro
Novato Pro

Mensajes : 274
Fecha de inscripción : 26/06/2016
Edad : 26

http://thefuturetechno.blogspot.es/

Volver arriba Ir abajo

Re: Dunkirk (2017) "Dunkerque" [AC3 5.1] [Blu-Ray Rip] [MEGA]

Mensaje por rightslaughter el Jue Dic 07, 2017 3:04 am

¡Gracias!

rightslaughter
Novato
Novato

Mensajes : 35
Fecha de inscripción : 10/09/2017

Volver arriba Ir abajo

Re: Dunkirk (2017) "Dunkerque" [AC3 5.1] [Blu-Ray Rip] [MEGA]

Mensaje por martinedu el Jue Dic 07, 2017 6:02 am

gracias por el aporte

martinedu
Novato
Novato

Mensajes : 18
Fecha de inscripción : 10/03/2015

Volver arriba Ir abajo

Re: Dunkirk (2017) "Dunkerque" [AC3 5.1] [Blu-Ray Rip] [MEGA]

Mensaje por Sigfried el Jue Dic 07, 2017 7:19 am

Gracias por el audio!

Sigfried
Novato
Novato

Mensajes : 47
Fecha de inscripción : 11/07/2014

Volver arriba Ir abajo

Re: Dunkirk (2017) "Dunkerque" [AC3 5.1] [Blu-Ray Rip] [MEGA]

Mensaje por jimm_j el Jue Dic 07, 2017 7:42 am

Muchas gracias por el aporte!!!

jimm_j
Novato
Novato

Mensajes : 14
Fecha de inscripción : 30/11/2014

Volver arriba Ir abajo

Re: Dunkirk (2017) "Dunkerque" [AC3 5.1] [Blu-Ray Rip] [MEGA]

Mensaje por amdgar el Jue Dic 07, 2017 7:48 am

Excelente aporte. Gracias!

amdgar
Novato
Novato

Mensajes : 2
Fecha de inscripción : 03/09/2017

Volver arriba Ir abajo

Re: Dunkirk (2017) "Dunkerque" [AC3 5.1] [Blu-Ray Rip] [MEGA]

Mensaje por sherar el Jue Dic 07, 2017 8:03 am

Very Happy Very Happy Very Happy

sherar
Novato
Novato

Mensajes : 13
Fecha de inscripción : 19/09/2016

Volver arriba Ir abajo

Re: Dunkirk (2017) "Dunkerque" [AC3 5.1] [Blu-Ray Rip] [MEGA]

Mensaje por perringb el Jue Dic 07, 2017 8:13 am

GRACIAS X COMPARTIR

perringb
Novato
Novato

Mensajes : 24
Fecha de inscripción : 31/08/2016

Volver arriba Ir abajo

Re: Dunkirk (2017) "Dunkerque" [AC3 5.1] [Blu-Ray Rip] [MEGA]

Mensaje por asd72 el Jue Dic 07, 2017 8:34 am

Muchas gracias.

asd72
Novato
Novato

Mensajes : 17
Fecha de inscripción : 22/02/2015

Volver arriba Ir abajo

Re: Dunkirk (2017) "Dunkerque" [AC3 5.1] [Blu-Ray Rip] [MEGA]

Mensaje por shinyrul el Jue Dic 07, 2017 9:00 am

muchas gracias

shinyrul
Novato
Novato

Mensajes : 10
Fecha de inscripción : 27/10/2017

Volver arriba Ir abajo

Re: Dunkirk (2017) "Dunkerque" [AC3 5.1] [Blu-Ray Rip] [MEGA]

Mensaje por MarceloF el Jue Dic 07, 2017 9:04 am

Muchas gracias por el aporte.

MarceloF
Novato
Novato

Mensajes : 97
Fecha de inscripción : 13/12/2016

Volver arriba Ir abajo

Re: Dunkirk (2017) "Dunkerque" [AC3 5.1] [Blu-Ray Rip] [MEGA]

Mensaje por gavito el Jue Dic 07, 2017 9:24 am

Funciona para la versión de yify?

gavito
Novato
Novato

Mensajes : 2
Fecha de inscripción : 25/03/2017

Volver arriba Ir abajo

Re: Dunkirk (2017) "Dunkerque" [AC3 5.1] [Blu-Ray Rip] [MEGA]

Mensaje por Odiseo el Jue Dic 07, 2017 9:37 am

Se agradece

EDIT: Si, para evitar que te bajen la cuenta, más bien para ganarte unos dolares.
No son necesarias 5 PAGINAS de PUBLICIDAD.

Odiseo
Novato
Novato

Mensajes : 6
Fecha de inscripción : 16/07/2016

Volver arriba Ir abajo

Re: Dunkirk (2017) "Dunkerque" [AC3 5.1] [Blu-Ray Rip] [MEGA]

Mensaje por Aegonox el Jue Dic 07, 2017 9:57 am

Gracias, lo esperaba Smile

Aegonox
Novato
Novato

Mensajes : 7
Fecha de inscripción : 02/10/2015

Volver arriba Ir abajo

Re: Dunkirk (2017) "Dunkerque" [AC3 5.1] [Blu-Ray Rip] [MEGA]

Mensaje por miguelev el Jue Dic 07, 2017 10:04 am

Gracias por el aporte!

miguelev
Novato
Novato

Mensajes : 10
Fecha de inscripción : 16/07/2017

Volver arriba Ir abajo

Re: Dunkirk (2017) "Dunkerque" [AC3 5.1] [Blu-Ray Rip] [MEGA]

Mensaje por peliculashd el Jue Dic 07, 2017 10:12 am

gracias!!!!

peliculashd
Novato
Novato

Mensajes : 25
Fecha de inscripción : 18/10/2017

Volver arriba Ir abajo

Re: Dunkirk (2017) "Dunkerque" [AC3 5.1] [Blu-Ray Rip] [MEGA]

Mensaje por javarturosant el Jue Dic 07, 2017 10:26 am

Gracias santa rendeer

javarturosant
Novato
Novato

Mensajes : 5
Fecha de inscripción : 18/08/2016

Volver arriba Ir abajo

Re: Dunkirk (2017) "Dunkerque" [AC3 5.1] [Blu-Ray Rip] [MEGA]

Mensaje por kornelio99 el Jue Dic 07, 2017 10:44 am

todo bien, gracias!

kornelio99
Novato
Novato

Mensajes : 95
Fecha de inscripción : 06/08/2014

Volver arriba Ir abajo

Re: Dunkirk (2017) "Dunkerque" [AC3 5.1] [Blu-Ray Rip] [MEGA]

Mensaje por Pablo RC el Jue Dic 07, 2017 10:47 am

gracias

Pablo RC
Novato
Novato

Mensajes : 44
Fecha de inscripción : 10/11/2017

Volver arriba Ir abajo

Re: Dunkirk (2017) "Dunkerque" [AC3 5.1] [Blu-Ray Rip] [MEGA]

Mensaje por 57942f0798314@mailbox80.b el Jue Dic 07, 2017 11:02 am

gracias

57942f0798314@mailbox80.b
Novato
Novato

Mensajes : 1
Fecha de inscripción : 23/07/2016

Volver arriba Ir abajo

Re: Dunkirk (2017) "Dunkerque" [AC3 5.1] [Blu-Ray Rip] [MEGA]

Mensaje por javier79 el Jue Dic 07, 2017 11:19 am

Jar26SJ escribió:
Dunkirk (2017)
Dunkerque (2017)


MediaInfo:
Código:
Audio
Format                                   : AC-3
Format/Info                              : Audio Coding 3
Format settings, Endianness              : Big
Duration                                 : 1 h 46 min
Bit rate mode                            : Constant
Bit rate                                 : 448 kb/s
Channel(s)                               : 6 channels
Channel positions                        : Front: L C R, Side: L R, LFE
Sampling rate                            : 48.0 kHz
Frame rate                               : 31.250 FPS (1536 SPF)
Bit depth                                : 16 bits
Compression mode                         : Lossy
Stream size                              : 342 MiB (100%)
Service kind                             : Complete Main
Comentar para ver link!
POSTDATA: No comentar el link de descarga directa para evitar que me bajen la cuenta.

muchas gracias

javier79
Novato
Novato

Mensajes : 7
Fecha de inscripción : 25/09/2015

Volver arriba Ir abajo

Re: Dunkirk (2017) "Dunkerque" [AC3 5.1] [Blu-Ray Rip] [MEGA]

Mensaje por javier79 el Jue Dic 07, 2017 11:20 am

gracias

javier79
Novato
Novato

Mensajes : 7
Fecha de inscripción : 25/09/2015

Volver arriba Ir abajo

Re: Dunkirk (2017) "Dunkerque" [AC3 5.1] [Blu-Ray Rip] [MEGA]

Mensaje por Goushido el Jue Dic 07, 2017 11:20 am

gracias a probar

Goushido
Novato Avanzado
Novato Avanzado

Mensajes : 146
Fecha de inscripción : 05/03/2015

Volver arriba Ir abajo

Re: Dunkirk (2017) "Dunkerque" [AC3 5.1] [Blu-Ray Rip] [MEGA]

Mensaje por tbespinozafuentes el Jue Dic 07, 2017 11:28 am

Very Happy

tbespinozafuentes
Novato
Novato

Mensajes : 19
Fecha de inscripción : 30/11/2017

Volver arriba Ir abajo

Re: Dunkirk (2017) "Dunkerque" [AC3 5.1] [Blu-Ray Rip] [MEGA]

Mensaje por ramv el Jue Dic 07, 2017 11:37 am

cheers

ramv
Novato
Novato

Mensajes : 50
Fecha de inscripción : 02/10/2016

Volver arriba Ir abajo

Re: Dunkirk (2017) "Dunkerque" [AC3 5.1] [Blu-Ray Rip] [MEGA]

Mensaje por Contenido patrocinado


Contenido patrocinado


Volver arriba Ir abajo

Página 1 de 8. 1, 2, 3, 4, 5, 6, 7, 8  Siguiente

Ver el tema anterior Ver el tema siguiente Volver arriba

- Temas similares

 
Permisos de este foro:
No puedes responder a temas en este foro.