It (2017) "El Payaso Asesino (Eso)" [AC3 5.1 + SUP] [Blu Ray-Rip] [MEGA]

Página 5 de 9. Precedente  1, 2, 3, 4, 5, 6, 7, 8, 9  Siguiente

Ir abajo

Re: It (2017) "El Payaso Asesino (Eso)" [AC3 5.1 + SUP] [Blu Ray-Rip] [MEGA]

Mensaje por IMZN el Vie Ene 26, 2018 1:02 pm

gracias

IMZN
Novato
Novato

Mensajes : 55
Fecha de inscripción : 27/07/2017

Volver arriba Ir abajo

Re: It (2017) "El Payaso Asesino (Eso)" [AC3 5.1 + SUP] [Blu Ray-Rip] [MEGA]

Mensaje por Tavolita el Vie Ene 26, 2018 3:49 pm

Gracias..!!

Tavolita
Novato
Novato

Mensajes : 15
Fecha de inscripción : 23/06/2015

Volver arriba Ir abajo

Re: It (2017) "El Payaso Asesino (Eso)" [AC3 5.1 + SUP] [Blu Ray-Rip] [MEGA]

Mensaje por Gabozort el Vie Ene 26, 2018 3:52 pm

gracias

Gabozort
Novato
Novato

Mensajes : 6
Fecha de inscripción : 02/04/2015

Volver arriba Ir abajo

Re: It (2017) "El Payaso Asesino (Eso)" [AC3 5.1 + SUP] [Blu Ray-Rip] [MEGA]

Mensaje por ryu30 el Vie Ene 26, 2018 6:22 pm

,uy agrdadecido de veras. saludos.

ryu30
Novato
Novato

Mensajes : 43
Fecha de inscripción : 02/12/2015

Volver arriba Ir abajo

Re: It (2017) "El Payaso Asesino (Eso)" [AC3 5.1 + SUP] [Blu Ray-Rip] [MEGA]

Mensaje por teddy79633209 el Vie Ene 26, 2018 8:02 pm

lo andaba buscando gracias
avatar
teddy79633209
Novato
Novato

Mensajes : 72
Fecha de inscripción : 16/04/2017

Volver arriba Ir abajo

Re: It (2017) "El Payaso Asesino (Eso)" [AC3 5.1 + SUP] [Blu Ray-Rip] [MEGA]

Mensaje por black_m26 el Vie Ene 26, 2018 9:52 pm

gracias

black_m26
Novato
Novato

Mensajes : 39
Fecha de inscripción : 03/11/2017

Volver arriba Ir abajo

Re: It (2017) "El Payaso Asesino (Eso)" [AC3 5.1 + SUP] [Blu Ray-Rip] [MEGA]

Mensaje por ainca el Sáb Ene 27, 2018 11:08 am

Ok

ainca
Novato
Novato

Mensajes : 36
Fecha de inscripción : 06/12/2015

Volver arriba Ir abajo

Re: It (2017) "El Payaso Asesino (Eso)" [AC3 5.1 + SUP] [Blu Ray-Rip] [MEGA]

Mensaje por gerkurt el Sáb Ene 27, 2018 10:04 pm

hi

gerkurt
Novato
Novato

Mensajes : 37
Fecha de inscripción : 14/02/2015

Volver arriba Ir abajo

Re: It (2017) "El Payaso Asesino (Eso)" [AC3 5.1 + SUP] [Blu Ray-Rip] [MEGA]

Mensaje por rubenj el Dom Ene 28, 2018 12:43 pm

gracias

rubenj
Novato
Novato

Mensajes : 10
Fecha de inscripción : 28/03/2015

Volver arriba Ir abajo

Re: It (2017) "El Payaso Asesino (Eso)" [AC3 5.1 + SUP] [Blu Ray-Rip] [MEGA]

Mensaje por RN38 el Dom Ene 28, 2018 7:32 pm

thanks

RN38
Novato
Novato

Mensajes : 26
Fecha de inscripción : 26/09/2017

Volver arriba Ir abajo

Re: It (2017) "El Payaso Asesino (Eso)" [AC3 5.1 + SUP] [Blu Ray-Rip] [MEGA]

Mensaje por friquelme el Lun Ene 29, 2018 9:32 am

gracias

friquelme
Novato
Novato

Mensajes : 4
Fecha de inscripción : 26/01/2018

Volver arriba Ir abajo

Re: It (2017) "El Payaso Asesino (Eso)" [AC3 5.1 + SUP] [Blu Ray-Rip] [MEGA]

Mensaje por matatenaska el Mar Ene 30, 2018 6:34 pm

gracias

matatenaska
Novato
Novato

Mensajes : 70
Fecha de inscripción : 08/06/2017

Volver arriba Ir abajo

Re: It (2017) "El Payaso Asesino (Eso)" [AC3 5.1 + SUP] [Blu Ray-Rip] [MEGA]

Mensaje por scxrlette el Mar Ene 30, 2018 7:41 pm

gracias

scxrlette
Novato
Novato

Mensajes : 33
Fecha de inscripción : 14/12/2017

Volver arriba Ir abajo

Re: It (2017) "El Payaso Asesino (Eso)" [AC3 5.1 + SUP] [Blu Ray-Rip] [MEGA]

Mensaje por charly1979 el Mar Ene 30, 2018 8:04 pm

Jar26SJ escribió:
It (2017)
El Payaso Asesino (Eso) (2017)


MediaInfo:
Código:
 Audio
Format                                   : AC-3
Format/Info                              : Audio Coding 3
Format settings, Endianness              : Big
Duration                                 : 2 h 14 min
Bit rate mode                            : Constant
Bit rate                                 : 448 kb/s
Channel(s)                               : 6 channels
Channel positions                        : Front: L C R, Side: L R, LFE
Sampling rate                            : 48.0 kHz
Frame rate                               : 31.250 FPS (1536 SPF)
Bit depth                                : 16 bits
Compression mode                         : Lossy
Stream size                              : 432 MiB (100%)
Service kind                             : Complete Main
Agradecer No Cuesta Nada!

¿Cómo Descargar?



Comentar con el link directo INHABILITARÁ AUTOMÁTICAMENTE el enlace hasta nuevo aviso.


charly1979
Novato
Novato

Mensajes : 6
Fecha de inscripción : 15/05/2017

Volver arriba Ir abajo

Re: It (2017) "El Payaso Asesino (Eso)" [AC3 5.1 + SUP] [Blu Ray-Rip] [MEGA]

Mensaje por charly1979 el Mar Ene 30, 2018 8:04 pm

gracias

charly1979
Novato
Novato

Mensajes : 6
Fecha de inscripción : 15/05/2017

Volver arriba Ir abajo

Re: It (2017) "El Payaso Asesino (Eso)" [AC3 5.1 + SUP] [Blu Ray-Rip] [MEGA]

Mensaje por ouchfer el Miér Ene 31, 2018 4:36 pm

Muchas Gracias!

ouchfer
Novato
Novato

Mensajes : 7
Fecha de inscripción : 21/10/2017

Volver arriba Ir abajo

gracias

Mensaje por believefunny el Miér Ene 31, 2018 6:31 pm

gracias


Última edición por believefunny el Miér Ene 31, 2018 7:13 pm, editado 1 vez
avatar
believefunny
Novato
Novato

Mensajes : 16
Fecha de inscripción : 29/01/2018

Volver arriba Ir abajo

Re: It (2017) "El Payaso Asesino (Eso)" [AC3 5.1 + SUP] [Blu Ray-Rip] [MEGA]

Mensaje por believefunny el Miér Ene 31, 2018 7:12 pm

gracias ... What a Face
avatar
believefunny
Novato
Novato

Mensajes : 16
Fecha de inscripción : 29/01/2018

Volver arriba Ir abajo

Re: It (2017) "El Payaso Asesino (Eso)" [AC3 5.1 + SUP] [Blu Ray-Rip] [MEGA]

Mensaje por believefunny el Miér Ene 31, 2018 7:14 pm

mil gracias
avatar
believefunny
Novato
Novato

Mensajes : 16
Fecha de inscripción : 29/01/2018

Volver arriba Ir abajo

Re: It (2017) "El Payaso Asesino (Eso)" [AC3 5.1 + SUP] [Blu Ray-Rip] [MEGA]

Mensaje por believefunny el Miér Ene 31, 2018 7:30 pm

gracias
avatar
believefunny
Novato
Novato

Mensajes : 16
Fecha de inscripción : 29/01/2018

Volver arriba Ir abajo

Re: It (2017) "El Payaso Asesino (Eso)" [AC3 5.1 + SUP] [Blu Ray-Rip] [MEGA]

Mensaje por pakooo el Miér Ene 31, 2018 9:21 pm

gracias

pakooo
Novato
Novato

Mensajes : 28
Fecha de inscripción : 16/09/2016

Volver arriba Ir abajo

Gracias por tu aporte...

Mensaje por Romina Rivera 19 el Jue Feb 01, 2018 4:33 pm

Jar26SJ escribió:
It (2017)
El Payaso Asesino (Eso) (2017)


MediaInfo:
Código:
 Audio
Format                                   : AC-3
Format/Info                              : Audio Coding 3
Format settings, Endianness              : Big
Duration                                 : 2 h 14 min
Bit rate mode                            : Constant
Bit rate                                 : 448 kb/s
Channel(s)                               : 6 channels
Channel positions                        : Front: L C R, Side: L R, LFE
Sampling rate                            : 48.0 kHz
Frame rate                               : 31.250 FPS (1536 SPF)
Bit depth                                : 16 bits
Compression mode                         : Lossy
Stream size                              : 432 MiB (100%)
Service kind                             : Complete Main
Agradecer No Cuesta Nada!

¿Cómo Descargar?



Comentar con el link directo INHABILITARÁ AUTOMÁTICAMENTE el enlace hasta nuevo aviso.


Romina Rivera 19
Novato
Novato

Mensajes : 73
Fecha de inscripción : 11/10/2015

Volver arriba Ir abajo

Re: It (2017) "El Payaso Asesino (Eso)" [AC3 5.1 + SUP] [Blu Ray-Rip] [MEGA]

Mensaje por lolo el Jue Feb 01, 2018 9:20 pm

thx¡¡¡

lolo
Novato
Novato

Mensajes : 15
Fecha de inscripción : 31/05/2017

Volver arriba Ir abajo

Re: It (2017) "El Payaso Asesino (Eso)" [AC3 5.1 + SUP] [Blu Ray-Rip] [MEGA]

Mensaje por havok el Vie Feb 02, 2018 9:41 am

Muchas gracias!

havok
Novato
Novato

Mensajes : 2
Fecha de inscripción : 02/02/2018

Volver arriba Ir abajo

Re: It (2017) "El Payaso Asesino (Eso)" [AC3 5.1 + SUP] [Blu Ray-Rip] [MEGA]

Mensaje por Leninlad el Vie Feb 02, 2018 11:59 am

gracias

Leninlad
Novato
Novato

Mensajes : 17
Fecha de inscripción : 27/03/2017

Volver arriba Ir abajo

Re: It (2017) "El Payaso Asesino (Eso)" [AC3 5.1 + SUP] [Blu Ray-Rip] [MEGA]

Mensaje por Contenido patrocinado


Contenido patrocinado


Volver arriba Ir abajo

Página 5 de 9. Precedente  1, 2, 3, 4, 5, 6, 7, 8, 9  Siguiente

Volver arriba

- Temas similares

 
Permisos de este foro:
No puedes responder a temas en este foro.