Goodbye Christopher Robin (2017) "Hasta Pronto Christopher Robin" [AC3 5.1 + SUP] [Blu Ray-Rip] [MEGA]

Página 1 de 2. 1, 2  Siguiente

Ver el tema anterior Ver el tema siguiente Ir abajo

Goodbye Christopher Robin (2017) "Hasta Pronto Christopher Robin" [AC3 5.1 + SUP] [Blu Ray-Rip] [MEGA]

Mensaje por Jar26SJ el Sáb Ene 13, 2018 10:27 am

Goodbye Christopher Robin (2017)
Hasta Pronto Christopher Robin (2017)


MediaInfo:
Código:
 Audio
Format                                   : AC-3
Format/Info                              : Audio Coding 3
Format settings, Endianness              : Big
Duration                                 : 1 h 47 min
Bit rate mode                            : Constant
Bit rate                                 : 448 kb/s
Channel(s)                               : 6 channels
Channel positions                        : Front: L C R, Side: L R, LFE
Sampling rate                            : 48.0 kHz
Frame rate                               : 31.250 FPS (1536 SPF)
Bit depth                                : 16 bits
Compression mode                         : Lossy
Stream size                              : 343 MiB (100%)
Service kind                             : Complete Main

Comentar Para Ver El LINK.
¡Agradecer No Cuesta Nada!


¿Cómo Descargar?



Colocar el LINK de descarga directa en comentarios INHABILITARÁ AUTOMÁTICAMENTE el enlace hasta nuevo aviso.



Contraseña: audiosparapeliculas.foroa.org
avatar
Jar26SJ
Novato Pro
Novato Pro

Mensajes : 364
Fecha de inscripción : 26/06/2016
Edad : 26

http://thefuturetechno.blogspot.es/

Volver arriba Ir abajo

Re: Goodbye Christopher Robin (2017) "Hasta Pronto Christopher Robin" [AC3 5.1 + SUP] [Blu Ray-Rip] [MEGA]

Mensaje por elvalerial el Sáb Ene 13, 2018 1:28 pm

gracias

elvalerial
Novato
Novato

Mensajes : 34
Fecha de inscripción : 11/03/2017

Volver arriba Ir abajo

Re: Goodbye Christopher Robin (2017) "Hasta Pronto Christopher Robin" [AC3 5.1 + SUP] [Blu Ray-Rip] [MEGA]

Mensaje por mopris el Sáb Ene 13, 2018 5:53 pm

gracias

mopris
Novato
Novato

Mensajes : 2
Fecha de inscripción : 23/12/2017

Volver arriba Ir abajo

Re: Goodbye Christopher Robin (2017) "Hasta Pronto Christopher Robin" [AC3 5.1 + SUP] [Blu Ray-Rip] [MEGA]

Mensaje por ReWilliz el Sáb Ene 13, 2018 6:35 pm

Very Happy Smile

ReWilliz
Novato
Novato

Mensajes : 31
Fecha de inscripción : 23/02/2015

Volver arriba Ir abajo

Re: Goodbye Christopher Robin (2017) "Hasta Pronto Christopher Robin" [AC3 5.1 + SUP] [Blu Ray-Rip] [MEGA]

Mensaje por davrista el Sáb Ene 13, 2018 10:13 pm

Gracias

davrista
Novato
Novato

Mensajes : 7
Fecha de inscripción : 21/04/2017

Volver arriba Ir abajo

Re: Goodbye Christopher Robin (2017) "Hasta Pronto Christopher Robin" [AC3 5.1 + SUP] [Blu Ray-Rip] [MEGA]

Mensaje por leoboca85 el Dom Ene 14, 2018 6:45 am

Gracias!

leoboca85
Novato
Novato

Mensajes : 22
Fecha de inscripción : 29/08/2016

Volver arriba Ir abajo

Re: Goodbye Christopher Robin (2017) "Hasta Pronto Christopher Robin" [AC3 5.1 + SUP] [Blu Ray-Rip] [MEGA]

Mensaje por vmicheli61@hotmail.com el Dom Ene 14, 2018 6:48 am

Excelente

vmicheli61@hotmail.com
Novato
Novato

Mensajes : 25
Fecha de inscripción : 27/04/2017

Volver arriba Ir abajo

Re: Goodbye Christopher Robin (2017) "Hasta Pronto Christopher Robin" [AC3 5.1 + SUP] [Blu Ray-Rip] [MEGA]

Mensaje por jcarbajal el Dom Ene 14, 2018 6:54 am

gracias

jcarbajal
Novato
Novato

Mensajes : 72
Fecha de inscripción : 21/02/2017

Volver arriba Ir abajo

Re: Goodbye Christopher Robin (2017) "Hasta Pronto Christopher Robin" [AC3 5.1 + SUP] [Blu Ray-Rip] [MEGA]

Mensaje por barrenof el Dom Ene 14, 2018 7:17 am

Very Happy
avatar
barrenof
Novato
Novato

Mensajes : 28
Fecha de inscripción : 16/09/2017
Edad : 41

Volver arriba Ir abajo

Re: Goodbye Christopher Robin (2017) "Hasta Pronto Christopher Robin" [AC3 5.1 + SUP] [Blu Ray-Rip] [MEGA]

Mensaje por dilmersito el Dom Ene 14, 2018 8:05 am

gracias

dilmersito
Novato
Novato

Mensajes : 70
Fecha de inscripción : 26/05/2016

Volver arriba Ir abajo

Re: Goodbye Christopher Robin (2017) "Hasta Pronto Christopher Robin" [AC3 5.1 + SUP] [Blu Ray-Rip] [MEGA]

Mensaje por Pablo RC el Dom Ene 14, 2018 8:55 am

gracias

Pablo RC
Novato
Novato

Mensajes : 63
Fecha de inscripción : 10/11/2017

Volver arriba Ir abajo

Re: Goodbye Christopher Robin (2017) "Hasta Pronto Christopher Robin" [AC3 5.1 + SUP] [Blu Ray-Rip] [MEGA]

Mensaje por WZR el Dom Ene 14, 2018 9:27 am

Graciass

WZR
Novato
Novato

Mensajes : 14
Fecha de inscripción : 21/04/2017

Volver arriba Ir abajo

Re: Goodbye Christopher Robin (2017) "Hasta Pronto Christopher Robin" [AC3 5.1 + SUP] [Blu Ray-Rip] [MEGA]

Mensaje por maalexss81 el Dom Ene 14, 2018 12:07 pm

GRACIAS

maalexss81
Novato
Novato

Mensajes : 47
Fecha de inscripción : 14/02/2016

Volver arriba Ir abajo

Re: Goodbye Christopher Robin (2017) "Hasta Pronto Christopher Robin" [AC3 5.1 + SUP] [Blu Ray-Rip] [MEGA]

Mensaje por HD CM el Dom Ene 14, 2018 2:52 pm

GRACIAS POR EL APORTE MASTER
avatar
HD CM
Novato
Novato

Mensajes : 90
Fecha de inscripción : 03/08/2014
Edad : 32

Volver arriba Ir abajo

Re: Goodbye Christopher Robin (2017) "Hasta Pronto Christopher Robin" [AC3 5.1 + SUP] [Blu Ray-Rip] [MEGA]

Mensaje por Ever64 el Dom Ene 14, 2018 3:34 pm

Muchas gracias

Ever64
Novato Pro
Novato Pro

Mensajes : 178
Fecha de inscripción : 03/11/2016

Volver arriba Ir abajo

Re: Goodbye Christopher Robin (2017) "Hasta Pronto Christopher Robin" [AC3 5.1 + SUP] [Blu Ray-Rip] [MEGA]

Mensaje por ChicooPopulaar el Dom Ene 14, 2018 6:19 pm

gracias

ChicooPopulaar
Novato Pro
Novato Pro

Mensajes : 158
Fecha de inscripción : 08/05/2017

Volver arriba Ir abajo

Re: Goodbye Christopher Robin (2017) "Hasta Pronto Christopher Robin" [AC3 5.1 + SUP] [Blu Ray-Rip] [MEGA]

Mensaje por alanquatermain el Lun Ene 15, 2018 12:39 am

gracias

alanquatermain
Novato
Novato

Mensajes : 21
Fecha de inscripción : 19/05/2017

Volver arriba Ir abajo

Re: Goodbye Christopher Robin (2017) "Hasta Pronto Christopher Robin" [AC3 5.1 + SUP] [Blu Ray-Rip] [MEGA]

Mensaje por jacp83 el Lun Ene 15, 2018 8:03 am

gracias

jacp83
Novato
Novato

Mensajes : 3
Fecha de inscripción : 02/01/2018

Volver arriba Ir abajo

Re: Goodbye Christopher Robin (2017) "Hasta Pronto Christopher Robin" [AC3 5.1 + SUP] [Blu Ray-Rip] [MEGA]

Mensaje por jonfernando el Lun Ene 15, 2018 10:37 am

graciassssssssssssssssssssssssssssssssssssssssssssssssssssssssssssssssssssssssssssssssssss

jonfernando
Novato Avanzado
Novato Avanzado

Mensajes : 116
Fecha de inscripción : 06/10/2014

Volver arriba Ir abajo

Re: Goodbye Christopher Robin (2017) "Hasta Pronto Christopher Robin" [AC3 5.1 + SUP] [Blu Ray-Rip] [MEGA]

Mensaje por lbatista el Mar Ene 16, 2018 6:57 am

gracias

lbatista
Novato
Novato

Mensajes : 44
Fecha de inscripción : 21/12/2017

Volver arriba Ir abajo

como descargo ahora

Mensaje por argimiro el Mar Ene 16, 2018 4:50 pm

Jar26SJ escribió:
Goodbye Christopher Robin (2017)
Hasta Pronto Christopher Robin (2017)


MediaInfo:
Código:
 Audio
Format                                   : AC-3
Format/Info                              : Audio Coding 3
Format settings, Endianness              : Big
Duration                                 : 1 h 47 min
Bit rate mode                            : Constant
Bit rate                                 : 448 kb/s
Channel(s)                               : 6 channels
Channel positions                        : Front: L C R, Side: L R, LFE
Sampling rate                            : 48.0 kHz
Frame rate                               : 31.250 FPS (1536 SPF)
Bit depth                                : 16 bits
Compression mode                         : Lossy
Stream size                              : 343 MiB (100%)
Service kind                             : Complete Main

Comentar Para Ver El LINK.
¡Agradecer No Cuesta Nada!


¿Cómo Descargar?



Colocar el LINK de descarga directa en comentarios INHABILITARÁ AUTOMÁTICAMENTE el enlace hasta nuevo aviso.



Contraseña: audiosparapeliculas.foroa.org

argimiro
Novato
Novato

Mensajes : 5
Fecha de inscripción : 03/01/2016

Volver arriba Ir abajo

Re: Goodbye Christopher Robin (2017) "Hasta Pronto Christopher Robin" [AC3 5.1 + SUP] [Blu Ray-Rip] [MEGA]

Mensaje por argimiro el Mar Ene 16, 2018 4:56 pm

davrista escribió:Gracias

Por fa y para descargar?

argimiro
Novato
Novato

Mensajes : 5
Fecha de inscripción : 03/01/2016

Volver arriba Ir abajo

Re: Goodbye Christopher Robin (2017) "Hasta Pronto Christopher Robin" [AC3 5.1 + SUP] [Blu Ray-Rip] [MEGA]

Mensaje por stereo100 el Mar Ene 16, 2018 6:43 pm

Gracias.

stereo100
Novato Avanzado
Novato Avanzado

Mensajes : 114
Fecha de inscripción : 18/11/2016

Volver arriba Ir abajo

Re: Goodbye Christopher Robin (2017) "Hasta Pronto Christopher Robin" [AC3 5.1 + SUP] [Blu Ray-Rip] [MEGA]

Mensaje por ZRDK Ayer a las 2:21 am

gracias

ZRDK
Novato
Novato

Mensajes : 32
Fecha de inscripción : 05/08/2015

Volver arriba Ir abajo

Re: Goodbye Christopher Robin (2017) "Hasta Pronto Christopher Robin" [AC3 5.1 + SUP] [Blu Ray-Rip] [MEGA]

Mensaje por tbespinozafuentes Ayer a las 7:00 am

Very Happy

tbespinozafuentes
Novato
Novato

Mensajes : 31
Fecha de inscripción : 30/11/2017

Volver arriba Ir abajo

Re: Goodbye Christopher Robin (2017) "Hasta Pronto Christopher Robin" [AC3 5.1 + SUP] [Blu Ray-Rip] [MEGA]

Mensaje por Contenido patrocinado


Contenido patrocinado


Volver arriba Ir abajo

Página 1 de 2. 1, 2  Siguiente

Ver el tema anterior Ver el tema siguiente Volver arriba

- Temas similares

 
Permisos de este foro:
No puedes responder a temas en este foro.