Blade of the Immortal (Mugen no jûnin) [2017] "La Espada del Inmortal" [AC3 2.0] [DVD-RIP] [MEGA]

Ver el tema anterior Ver el tema siguiente Ir abajo

Blade of the Immortal (Mugen no jûnin) [2017] "La Espada del Inmortal" [AC3 2.0] [DVD-RIP] [MEGA]

Mensaje por Jar26SJ el Sáb Ene 13, 2018 11:30 am

Blade of the Immortal (2017)
Mugen no jûnin (2017)
La Espada del Inmortal (2017)


MediaInfo:
Código:
Audio
Format : AC-3
Format/Info : Audio Coding 3
Duration : 2 h 20 min
Bit rate mode : Constant
Bit rate : 384 kb/s
Channel(s) : 2 channels
Channel positions : Front: L R
Sampling rate : 48.0 kHz
Frame rate : 31.250 FPS (1536 SPF)
Bit depth : 16 bits
Compression mode : Lossy
Stream size : 387 MiB (100%)
Service kind : Complete Main

Comentar Para Ver El LINK.
¡Agradecer No Cuesta Nada!


¿Cómo Descargar?



Colocar el LINK de descarga directa en comentarios INHABILITARÁ AUTOMÁTICAMENTE el enlace hasta nuevo aviso.



Contraseña: audiosparapeliculas.foroa.org
avatar
Jar26SJ
Novato Pro
Novato Pro

Mensajes : 360
Fecha de inscripción : 26/06/2016
Edad : 26

http://thefuturetechno.blogspot.es/

Volver arriba Ir abajo

muy buen aporte...

Mensaje por Romina Rivera 19 el Sáb Ene 13, 2018 2:42 pm

Jar26SJ escribió:
Blade of the Immortal (2017)
Mugen no jûnin (2017)
La Espada del Inmortal (2017)


MediaInfo:
Código:
Audio
Format : AC-3
Format/Info : Audio Coding 3
Duration : 2 h 20 min
Bit rate mode : Constant
Bit rate : 384 kb/s
Channel(s) : 2 channels
Channel positions : Front: L R
Sampling rate : 48.0 kHz
Frame rate : 31.250 FPS (1536 SPF)
Bit depth : 16 bits
Compression mode : Lossy
Stream size : 387 MiB (100%)
Service kind : Complete Main

Comentar Para Ver El LINK.
¡Agradecer No Cuesta Nada!


¿Cómo Descargar?



Colocar el LINK de descarga directa en comentarios INHABILITARÁ AUTOMÁTICAMENTE el enlace hasta nuevo aviso.



Contraseña: audiosparapeliculas.foroa.org

Romina Rivera 19
Novato
Novato

Mensajes : 41
Fecha de inscripción : 11/10/2015

Volver arriba Ir abajo

Re: Blade of the Immortal (Mugen no jûnin) [2017] "La Espada del Inmortal" [AC3 2.0] [DVD-RIP] [MEGA]

Mensaje por dilmersito el Sáb Ene 13, 2018 3:25 pm

gracias

dilmersito
Novato
Novato

Mensajes : 69
Fecha de inscripción : 26/05/2016

Volver arriba Ir abajo

Re: Blade of the Immortal (Mugen no jûnin) [2017] "La Espada del Inmortal" [AC3 2.0] [DVD-RIP] [MEGA]

Mensaje por Aipoc el Sáb Ene 13, 2018 4:11 pm

Gracias

Aipoc
Novato
Novato

Mensajes : 65
Fecha de inscripción : 03/08/2017

Volver arriba Ir abajo

Re: Blade of the Immortal (Mugen no jûnin) [2017] "La Espada del Inmortal" [AC3 2.0] [DVD-RIP] [MEGA]

Mensaje por esaudaniel el Sáb Ene 13, 2018 8:26 pm

GENIAL GRACIAS

esaudaniel
Novato
Novato

Mensajes : 10
Fecha de inscripción : 21/01/2017

Volver arriba Ir abajo

Re: Blade of the Immortal (Mugen no jûnin) [2017] "La Espada del Inmortal" [AC3 2.0] [DVD-RIP] [MEGA]

Mensaje por guty34 el Sáb Ene 13, 2018 9:22 pm

gracias

guty34
Novato Pro
Novato Pro

Mensajes : 158
Fecha de inscripción : 18/07/2016

Volver arriba Ir abajo

Re: Blade of the Immortal (Mugen no jûnin) [2017] "La Espada del Inmortal" [AC3 2.0] [DVD-RIP] [MEGA]

Mensaje por overdead el Sáb Ene 13, 2018 11:56 pm

grax

overdead
Novato
Novato

Mensajes : 56
Fecha de inscripción : 20/05/2016

Volver arriba Ir abajo

Re: Blade of the Immortal (Mugen no jûnin) [2017] "La Espada del Inmortal" [AC3 2.0] [DVD-RIP] [MEGA]

Mensaje por kornelio99 el Dom Ene 14, 2018 7:07 am

gracias!

kornelio99
Novato Avanzado
Novato Avanzado

Mensajes : 142
Fecha de inscripción : 06/08/2014

Volver arriba Ir abajo

Re: Blade of the Immortal (Mugen no jûnin) [2017] "La Espada del Inmortal" [AC3 2.0] [DVD-RIP] [MEGA]

Mensaje por juliog el Dom Ene 14, 2018 9:35 am

Very Happy

juliog
Novato
Novato

Mensajes : 21
Fecha de inscripción : 30/01/2015

Volver arriba Ir abajo

Re: Blade of the Immortal (Mugen no jûnin) [2017] "La Espada del Inmortal" [AC3 2.0] [DVD-RIP] [MEGA]

Mensaje por weydogg el Dom Ene 14, 2018 3:22 pm

Muchas gracias.

weydogg
Novato
Novato

Mensajes : 13
Fecha de inscripción : 26/09/2017

Volver arriba Ir abajo

Re: Blade of the Immortal (Mugen no jûnin) [2017] "La Espada del Inmortal" [AC3 2.0] [DVD-RIP] [MEGA]

Mensaje por tomkins el Dom Ene 14, 2018 8:05 pm

gracias!!!!!!!!!!!!!!!
avatar
tomkins
Novato
Novato

Mensajes : 47
Fecha de inscripción : 28/09/2013

Volver arriba Ir abajo

Re: Blade of the Immortal (Mugen no jûnin) [2017] "La Espada del Inmortal" [AC3 2.0] [DVD-RIP] [MEGA]

Mensaje por Contenido patrocinado


Contenido patrocinado


Volver arriba Ir abajo

Ver el tema anterior Ver el tema siguiente Volver arriba

- Temas similares

 
Permisos de este foro:
No puedes responder a temas en este foro.