Once Upon a Time in Venice (2017) Solo Audio Latino AC3 5.1 640 Kbps (Autoria)

Ver el tema anterior Ver el tema siguiente Ir abajo

Once Upon a Time in Venice (2017) Solo Audio Latino AC3 5.1 640 Kbps (Autoria)

Mensaje por pedacaji el Sáb Ene 13, 2018 5:03 pm


Media Info

Audio
Format : AC-3
Format/Info : Audio Coding 3
Mode extension : CM (complete main)
Format settings, Endianness : Big
Duration : 1h 34mn
Bit rate mode : Constant
Bit rate : 640 Kbps
Channel(s) : 6 channels
Channel positions : Front: L C R, Side: L R, LFE
Sampling rate : 48.0 KHz
Frame rate : 31.250 fps (1536 spf)
Compression mode : Lossy
Stream size : 432 MiB (100%)


Nota: Este audio fue editado usando el AC3 5.1 640 Kbps en ingles extraído del BD al cual se le reemplazaron las voces(diálogos) por los  del AC3 2.0 448 Kbps en español latino extraído del DVD. Sincronizado y probado con la siguiente versión: Once.Upon.a.Time.in.Venice.2017.1080p.BluRay.x264-PSYCHD[rarbg]. Lo más probable es que funcione con otras fuentes BD.


DESCARGA
Debes comentar para ver el Link


pedacaji
Novato
Novato

Mensajes : 10
Fecha de inscripción : 05/12/2015

Volver arriba Ir abajo

Re: Once Upon a Time in Venice (2017) Solo Audio Latino AC3 5.1 640 Kbps (Autoria)

Mensaje por IvanKill el Sáb Ene 13, 2018 8:27 pm

Gracias

IvanKill
Novato
Novato

Mensajes : 21
Fecha de inscripción : 27/02/2015

Volver arriba Ir abajo

Re: Once Upon a Time in Venice (2017) Solo Audio Latino AC3 5.1 640 Kbps (Autoria)

Mensaje por hfanjul el Sáb Ene 13, 2018 8:55 pm

Gracias

hfanjul
Novato
Novato

Mensajes : 95
Fecha de inscripción : 27/02/2015

Volver arriba Ir abajo

Re: Once Upon a Time in Venice (2017) Solo Audio Latino AC3 5.1 640 Kbps (Autoria)

Mensaje por BAIFFEL el Sáb Ene 13, 2018 10:18 pm

Gracias!!

BAIFFEL
Novato
Novato

Mensajes : 26
Fecha de inscripción : 26/09/2017

Volver arriba Ir abajo

Re: Once Upon a Time in Venice (2017) Solo Audio Latino AC3 5.1 640 Kbps (Autoria)

Mensaje por slaiger004 el Dom Ene 14, 2018 12:19 am

Muchas gracias

slaiger004
Novato
Novato

Mensajes : 34
Fecha de inscripción : 22/07/2014

Volver arriba Ir abajo

Re: Once Upon a Time in Venice (2017) Solo Audio Latino AC3 5.1 640 Kbps (Autoria)

Mensaje por kornelio99 el Dom Ene 14, 2018 7:06 am

Gracias!

kornelio99
Novato Avanzado
Novato Avanzado

Mensajes : 142
Fecha de inscripción : 06/08/2014

Volver arriba Ir abajo

Re: Once Upon a Time in Venice (2017) Solo Audio Latino AC3 5.1 640 Kbps (Autoria)

Mensaje por Pablo RC el Dom Ene 14, 2018 8:27 am

gracias

Pablo RC
Novato
Novato

Mensajes : 61
Fecha de inscripción : 10/11/2017

Volver arriba Ir abajo

Re: Once Upon a Time in Venice (2017) Solo Audio Latino AC3 5.1 640 Kbps (Autoria)

Mensaje por loco3185 el Dom Ene 14, 2018 9:35 am

GRACIAS

loco3185
Novato
Novato

Mensajes : 23
Fecha de inscripción : 14/06/2017

Volver arriba Ir abajo

Re: Once Upon a Time in Venice (2017) Solo Audio Latino AC3 5.1 640 Kbps (Autoria)

Mensaje por charly24 el Dom Ene 14, 2018 10:21 am

gracias

charly24
Novato
Novato

Mensajes : 13
Fecha de inscripción : 18/09/2017

Volver arriba Ir abajo

Re: Once Upon a Time in Venice (2017) Solo Audio Latino AC3 5.1 640 Kbps (Autoria)

Mensaje por PedroLozas el Dom Ene 14, 2018 4:09 pm

Gracias

PedroLozas
Novato
Novato

Mensajes : 27
Fecha de inscripción : 17/05/2015

Volver arriba Ir abajo

Re: Once Upon a Time in Venice (2017) Solo Audio Latino AC3 5.1 640 Kbps (Autoria)

Mensaje por Bolihb el Dom Ene 14, 2018 6:09 pm

Muchas gracias por este audio, lo esperaba. Éxitos

Bolihb
Novato
Novato

Mensajes : 41
Fecha de inscripción : 31/10/2014

Volver arriba Ir abajo

Gracias por tu aporte...

Mensaje por Romina Rivera 19 el Dom Ene 14, 2018 6:21 pm

pedacaji escribió:

Media Info

Audio
Format : AC-3
Format/Info : Audio Coding 3
Mode extension : CM (complete main)
Format settings, Endianness : Big
Duration : 1h 34mn
Bit rate mode : Constant
Bit rate : 640 Kbps
Channel(s) : 6 channels
Channel positions : Front: L C R, Side: L R, LFE
Sampling rate : 48.0 KHz
Frame rate : 31.250 fps (1536 spf)
Compression mode : Lossy
Stream size : 432 MiB (100%)


Nota: Este audio fue editado usando el AC3 5.1 640 Kbps en ingles extraído del BD al cual se le reemplazaron las voces(diálogos) por los  del AC3 2.0 448 Kbps en español latino extraído del DVD. Sincronizado y probado con la siguiente versión: Once.Upon.a.Time.in.Venice.2017.1080p.BluRay.x264-PSYCHD[rarbg]. Lo más probable es que funcione con otras fuentes BD.


DESCARGA
Debes comentar para ver el Link


Romina Rivera 19
Novato
Novato

Mensajes : 41
Fecha de inscripción : 11/10/2015

Volver arriba Ir abajo

Re: Once Upon a Time in Venice (2017) Solo Audio Latino AC3 5.1 640 Kbps (Autoria)

Mensaje por kahlak el Dom Ene 14, 2018 6:50 pm

me pica aqui me pica aca! mamamamamamama
fap time! Rolling Eyes

kahlak
Novato
Novato

Mensajes : 81
Fecha de inscripción : 19/04/2015

Volver arriba Ir abajo

Re: Once Upon a Time in Venice (2017) Solo Audio Latino AC3 5.1 640 Kbps (Autoria)

Mensaje por kahlak el Dom Ene 14, 2018 8:50 pm

no logro sincronizar para la version yify

Once Upon A Time In Venice (2017) [1080p] [YTS.AG]

kahlak
Novato
Novato

Mensajes : 81
Fecha de inscripción : 19/04/2015

Volver arriba Ir abajo

Re: Once Upon a Time in Venice (2017) Solo Audio Latino AC3 5.1 640 Kbps (Autoria)

Mensaje por pedacaji el Dom Ene 14, 2018 11:14 pm

kahlak escribió:no logro sincronizar para la version yify

Once Upon A Time In Venice (2017) [1080p] [YTS.AG]

En algunas versiones una de las cosas que suelen modificar es el Frame Rate (fps), este audio esta sincronizado para versiones con 23.976 fps, verifica mediante el Mediainfo de tu película cual es el Frame Rate que posee, si es distinto de 23.976 fps jamas te va a sincronizar.

pedacaji
Novato
Novato

Mensajes : 10
Fecha de inscripción : 05/12/2015

Volver arriba Ir abajo

Re: Once Upon a Time in Venice (2017) Solo Audio Latino AC3 5.1 640 Kbps (Autoria)

Mensaje por tuenny12 el Lun Ene 15, 2018 6:50 am

Muchas gracias

tuenny12
Novato
Novato

Mensajes : 40
Fecha de inscripción : 07/01/2015

Volver arriba Ir abajo

Re: Once Upon a Time in Venice (2017) Solo Audio Latino AC3 5.1 640 Kbps (Autoria)

Mensaje por lbatista el Mar Ene 16, 2018 6:35 am

gracias

lbatista
Novato
Novato

Mensajes : 44
Fecha de inscripción : 21/12/2017

Volver arriba Ir abajo

Re: Once Upon a Time in Venice (2017) Solo Audio Latino AC3 5.1 640 Kbps (Autoria)

Mensaje por Contenido patrocinado


Contenido patrocinado


Volver arriba Ir abajo

Ver el tema anterior Ver el tema siguiente Volver arriba

- Temas similares

 
Permisos de este foro:
No puedes responder a temas en este foro.