Thor: Ragnarok (2017) [AC3 2.0] [Cam Audio] [MEGA/GOOGLEDRIVE]

Página 1 de 28. 1, 2, 3 ... 14 ... 28  Siguiente

Ir abajo

Thor: Ragnarok (2017) [AC3 2.0] [Cam Audio] [MEGA/GOOGLEDRIVE]

Mensaje por Jar26SJ el Lun Ene 22, 2018 11:58 am

Thor: Ragnarok (2017)

MediaInfo:
Código:
Audio
Format                      : AC-3
Format/Info                 : Audio Coding 3
Format settings, Endianness : Big
Duration                    : 2 h 10 min
Bit rate mode               : Constant
Bit rate                    : 128 kb/s
Channel(s)                  : 2 channels
Channel positions           : Front: L R
Sampling rate               : 44.1 kHz
Frame rate                  : 28.711 FPS (1536 SPF)
Bit depth                   : 16 bits
Compression mode            : Lossy
Stream size                 : 120 MiB (100%)
Service kind                : Complete Main

Comentar Para Ver El LINK.
¡Agradecer No Cuesta Nada!


¿Cómo Descargar?



Colocar el LINK de descarga directa en comentarios INHABILITARÁ AUTOMÁTICAMENTE el enlace hasta nuevo aviso.


POSTDATA: Como el titulo lo dice el audio fue obtenido directamente del cine, pero la calidad es medianamente buena, solo se escucha alguno que otro murmullo por algunos segundos en una parte del audio. Cuando salga el Blu-ray oficial en unas 3 o 4 semanas se publicará el audio oficial.

Contraseña: audiosparapeliculas.foroa.org


Última edición por Jar26SJ el Sáb Feb 24, 2018 7:18 am, editado 3 veces
avatar
Jar26SJ
Uploader
Uploader

Mensajes : 549
Fecha de inscripción : 26/06/2016
Edad : 26

http://thefuturetechno.blogspot.es/

Volver arriba Ir abajo

Re: Thor: Ragnarok (2017) [AC3 2.0] [Cam Audio] [MEGA/GOOGLEDRIVE]

Mensaje por jasar1980 el Lun Ene 22, 2018 12:13 pm

hola gracias!!!

jasar1980
Novato
Novato

Mensajes : 33
Fecha de inscripción : 21/04/2017

Volver arriba Ir abajo

genia

Mensaje por SenseiRTV el Lun Ene 22, 2018 12:24 pm

justo lo que nesecitaba

SenseiRTV
Novato
Novato

Mensajes : 1
Fecha de inscripción : 22/01/2018

Volver arriba Ir abajo

Re: Thor: Ragnarok (2017) [AC3 2.0] [Cam Audio] [MEGA/GOOGLEDRIVE]

Mensaje por danielp97 el Lun Ene 22, 2018 12:27 pm

ola

danielp97
Novato
Novato

Mensajes : 5
Fecha de inscripción : 22/01/2018

Volver arriba Ir abajo

Re: Thor: Ragnarok (2017) [AC3 2.0] [Cam Audio] [MEGA/GOOGLEDRIVE]

Mensaje por DiegoLoco_83 el Lun Ene 22, 2018 12:33 pm

Gran trabajo. Gracias por el aporte ¡sigan así!

DiegoLoco_83
Novato Avanzado
Novato Avanzado

Mensajes : 100
Fecha de inscripción : 31/03/2015

Volver arriba Ir abajo

Re: Thor: Ragnarok (2017) [AC3 2.0] [Cam Audio] [MEGA/GOOGLEDRIVE]

Mensaje por jvs0872 el Lun Ene 22, 2018 12:39 pm

estupendo aporte

jvs0872
Novato
Novato

Mensajes : 2
Fecha de inscripción : 27/02/2017

Volver arriba Ir abajo

Re: Thor: Ragnarok (2017) [AC3 2.0] [Cam Audio] [MEGA/GOOGLEDRIVE]

Mensaje por coldwii el Lun Ene 22, 2018 12:40 pm

Gracias

coldwii
Novato Pro
Novato Pro

Mensajes : 232
Fecha de inscripción : 19/06/2015

Volver arriba Ir abajo

Re: Thor: Ragnarok (2017) [AC3 2.0] [Cam Audio] [MEGA/GOOGLEDRIVE]

Mensaje por PMB el Lun Ene 22, 2018 12:40 pm

Gracias...

PMB
Novato
Novato

Mensajes : 42
Fecha de inscripción : 02/06/2017

Volver arriba Ir abajo

Re: Thor: Ragnarok (2017) [AC3 2.0] [Cam Audio] [MEGA/GOOGLEDRIVE]

Mensaje por dilmersito el Lun Ene 22, 2018 12:43 pm

gracias

dilmersito
Novato Avanzado
Novato Avanzado

Mensajes : 141
Fecha de inscripción : 26/05/2016

Volver arriba Ir abajo

Re: Thor: Ragnarok (2017) [AC3 2.0] [Cam Audio] [MEGA/GOOGLEDRIVE]

Mensaje por licalbertolp el Lun Ene 22, 2018 12:55 pm

Graciass!! Very Happy Very Happy Very Happy

licalbertolp
Novato
Novato

Mensajes : 14
Fecha de inscripción : 02/09/2016

Volver arriba Ir abajo

Re: Thor: Ragnarok (2017) [AC3 2.0] [Cam Audio] [MEGA/GOOGLEDRIVE]

Mensaje por loco3185 el Lun Ene 22, 2018 12:56 pm

gracias

loco3185
Novato
Novato

Mensajes : 44
Fecha de inscripción : 14/06/2017

Volver arriba Ir abajo

Re: Thor: Ragnarok (2017) [AC3 2.0] [Cam Audio] [MEGA/GOOGLEDRIVE]

Mensaje por Santixus el Lun Ene 22, 2018 1:01 pm

gracias lo estaba esperando

Santixus
Novato
Novato

Mensajes : 21
Fecha de inscripción : 26/11/2017

Volver arriba Ir abajo

Re: Thor: Ragnarok (2017) [AC3 2.0] [Cam Audio] [MEGA/GOOGLEDRIVE]

Mensaje por yorhany77 el Lun Ene 22, 2018 1:02 pm

genial pv

yorhany77
Novato
Novato

Mensajes : 49
Fecha de inscripción : 29/09/2016

Volver arriba Ir abajo

Re: Thor: Ragnarok (2017) [AC3 2.0] [Cam Audio] [MEGA/GOOGLEDRIVE]

Mensaje por Web-on el Lun Ene 22, 2018 1:04 pm

Gracias, vamos a probarlo ya que me cuesta ver los sutitulos.

Web-on
Novato
Novato

Mensajes : 68
Fecha de inscripción : 27/11/2017

Volver arriba Ir abajo

Re: Thor: Ragnarok (2017) [AC3 2.0] [Cam Audio] [MEGA/GOOGLEDRIVE]

Mensaje por jshaka el Lun Ene 22, 2018 1:19 pm

Audio
Format                      : AC-3
Format/Info                 : Audio Coding 3
Format settings, Endianness : Big
Duration                    : 2 h 10 min
Bit rate mode               : Constant
Bit rate                    : 128 kb/s
Channel(s)                  : 2 channels
Channel positions           : Front: L R
Sampling rate               : 44.1 kHz
Frame rate                  : 28.711 FPS (1536 SPF)
Bit depth                   : 16 bits
Compression mode            : Lossy
Stream size                 : 120 MiB (100%)
Service kind                : Complete Main

jshaka
Novato
Novato

Mensajes : 1
Fecha de inscripción : 22/01/2018

Volver arriba Ir abajo

Re: Thor: Ragnarok (2017) [AC3 2.0] [Cam Audio] [MEGA/GOOGLEDRIVE]

Mensaje por J.Pe el Lun Ene 22, 2018 1:33 pm

gracias

J.Pe
Novato
Novato

Mensajes : 84
Fecha de inscripción : 04/12/2016

Volver arriba Ir abajo

Re: Thor: Ragnarok (2017) [AC3 2.0] [Cam Audio] [MEGA/GOOGLEDRIVE]

Mensaje por FIFOHXC21 el Lun Ene 22, 2018 1:34 pm

gracias
avatar
FIFOHXC21
Novato
Novato

Mensajes : 36
Fecha de inscripción : 31/10/2016

Volver arriba Ir abajo

Re: Thor: Ragnarok (2017) [AC3 2.0] [Cam Audio] [MEGA/GOOGLEDRIVE]

Mensaje por chelextro el Lun Ene 22, 2018 1:35 pm

y los link?

chelextro
Novato
Novato

Mensajes : 3
Fecha de inscripción : 18/05/2017

Volver arriba Ir abajo

Re: Thor: Ragnarok (2017) [AC3 2.0] [Cam Audio] [MEGA/GOOGLEDRIVE]

Mensaje por danyy1991 el Lun Ene 22, 2018 1:56 pm

Muchas gracias,buen aporte.. no sale el audio en castellano de las versiones web dl?? Y otra pregunta, está peli tendrá versión imax??

danyy1991
Novato
Novato

Mensajes : 29
Fecha de inscripción : 27/01/2016

Volver arriba Ir abajo

Re: Thor: Ragnarok (2017) [AC3 2.0] [Cam Audio] [MEGA/GOOGLEDRIVE]

Mensaje por Queshu el Lun Ene 22, 2018 2:08 pm

Gracias.

Queshu
Novato Pro
Novato Pro

Mensajes : 386
Fecha de inscripción : 11/11/2015

Volver arriba Ir abajo

Re: Thor: Ragnarok (2017) [AC3 2.0] [Cam Audio] [MEGA/GOOGLEDRIVE]

Mensaje por jluis710522 el Lun Ene 22, 2018 2:14 pm

Gracias, Verificando...

jluis710522
Novato Pro
Novato Pro

Mensajes : 220
Fecha de inscripción : 18/10/2016

Volver arriba Ir abajo

Re: Thor: Ragnarok (2017) [AC3 2.0] [Cam Audio] [MEGA/GOOGLEDRIVE]

Mensaje por piratasdelcaribe el Lun Ene 22, 2018 2:17 pm

Gracias lo probaremos...

piratasdelcaribe
Novato Avanzado
Novato Avanzado

Mensajes : 127
Fecha de inscripción : 13/03/2016

Volver arriba Ir abajo

Re: Thor: Ragnarok (2017) [AC3 2.0] [Cam Audio] [MEGA/GOOGLEDRIVE]

Mensaje por tomkins el Lun Ene 22, 2018 2:20 pm

gracias!!!!!!
avatar
tomkins
Novato
Novato

Mensajes : 65
Fecha de inscripción : 28/09/2013

Volver arriba Ir abajo

Re: Thor: Ragnarok (2017) [AC3 2.0] [Cam Audio] [MEGA/GOOGLEDRIVE]

Mensaje por tupitotupini el Lun Ene 22, 2018 2:39 pm

Gracias!!! Very Happy

tupitotupini
Novato
Novato

Mensajes : 3
Fecha de inscripción : 28/06/2017

Volver arriba Ir abajo

Re: Thor: Ragnarok (2017) [AC3 2.0] [Cam Audio] [MEGA/GOOGLEDRIVE]

Mensaje por armsa el Lun Ene 22, 2018 2:40 pm

gracias

armsa
Novato Pro
Novato Pro

Mensajes : 179
Fecha de inscripción : 05/07/2016

Volver arriba Ir abajo

Re: Thor: Ragnarok (2017) [AC3 2.0] [Cam Audio] [MEGA/GOOGLEDRIVE]

Mensaje por Contenido patrocinado


Contenido patrocinado


Volver arriba Ir abajo

Página 1 de 28. 1, 2, 3 ... 14 ... 28  Siguiente

Volver arriba

- Temas similares

 
Permisos de este foro:
No puedes responder a temas en este foro.