Thor: Ragnarok (2017) [AC3 2.0] [Cam Audio] [MEGA/GOOGLEDRIVE]

Página 6 de 26. Precedente  1 ... 5, 6, 7 ... 16 ... 26  Siguiente

Ir abajo

Re: Thor: Ragnarok (2017) [AC3 2.0] [Cam Audio] [MEGA/GOOGLEDRIVE]

Mensaje por sapojuarez el Mar Ene 23, 2018 6:36 pm

gracias, como aparece el link?

sapojuarez
Novato
Novato

Mensajes : 6
Fecha de inscripción : 29/01/2017

Volver arriba Ir abajo

Re: Thor: Ragnarok (2017) [AC3 2.0] [Cam Audio] [MEGA/GOOGLEDRIVE]

Mensaje por exequiel el Mar Ene 23, 2018 6:37 pm

no me muestra el link :c

exequiel
Novato
Novato

Mensajes : 8
Fecha de inscripción : 17/07/2017

Volver arriba Ir abajo

Re: Thor: Ragnarok (2017) [AC3 2.0] [Cam Audio] [MEGA/GOOGLEDRIVE]

Mensaje por raul humberto el Mar Ene 23, 2018 6:58 pm

wow muchas gracias esta exelente la estaba esperando Very Happy

raul humberto
Novato
Novato

Mensajes : 1
Fecha de inscripción : 23/01/2018

Volver arriba Ir abajo

Re: Thor: Ragnarok (2017) [AC3 2.0] [Cam Audio] [MEGA/GOOGLEDRIVE]

Mensaje por karimnyu el Mar Ene 23, 2018 7:12 pm

Gracias por el audio! Smile

karimnyu
Novato
Novato

Mensajes : 2
Fecha de inscripción : 02/05/2015

Volver arriba Ir abajo

Re: Thor: Ragnarok (2017) [AC3 2.0] [Cam Audio] [MEGA/GOOGLEDRIVE]

Mensaje por Alvaro7 el Mar Ene 23, 2018 7:24 pm

gracias por el aporte!

Alvaro7
Novato
Novato

Mensajes : 1
Fecha de inscripción : 23/01/2018

Volver arriba Ir abajo

Re: Thor: Ragnarok (2017) [AC3 2.0] [Cam Audio] [MEGA/GOOGLEDRIVE]

Mensaje por Cristhyancj el Mar Ene 23, 2018 7:47 pm

grasias

Cristhyancj
Novato
Novato

Mensajes : 25
Fecha de inscripción : 27/05/2015

Volver arriba Ir abajo

Re: Thor: Ragnarok (2017) [AC3 2.0] [Cam Audio] [MEGA/GOOGLEDRIVE]

Mensaje por mostlyjase el Mar Ene 23, 2018 8:29 pm

GRacias!

mostlyjase
Novato
Novato

Mensajes : 2
Fecha de inscripción : 12/11/2016

Volver arriba Ir abajo

gracias

Mensaje por rocove1 el Mar Ene 23, 2018 8:50 pm

gracias

rocove1
Novato
Novato

Mensajes : 17
Fecha de inscripción : 17/03/2015

Volver arriba Ir abajo

gracias

Mensaje por rocove1 el Mar Ene 23, 2018 8:53 pm

Jar26SJ escribió:
Thor: Ragnarok (2017)

MediaInfo:
Código:
Audio
Format                      : AC-3
Format/Info                 : Audio Coding 3
Format settings, Endianness : Big
Duration                    : 2 h 10 min
Bit rate mode               : Constant
Bit rate                    : 128 kb/s
Channel(s)                  : 2 channels
Channel positions           : Front: L R
Sampling rate               : 44.1 kHz
Frame rate                  : 28.711 FPS (1536 SPF)
Bit depth                   : 16 bits
Compression mode            : Lossy
Stream size                 : 120 MiB (100%)
Service kind                : Complete Main

Comentar Para Ver El LINK.
¡Agradecer No Cuesta Nada!


¿Cómo Descargar?



Colocar el LINK de descarga directa en comentarios INHABILITARÁ AUTOMÁTICAMENTE el enlace hasta nuevo aviso.


POSTDATA: Como el titulo lo dice el audio fue obtenido directamente del cine, pero la calidad es medianamente buena, solo se escucha alguno que otro murmullo por algunos segundos en una parte del audio. Cuando salga el Blu-ray oficial en unas 3 o 4 semanas se publicará el audio oficial.

Contraseña: audiosparapeliculas.foroa.org

rocove1
Novato
Novato

Mensajes : 17
Fecha de inscripción : 17/03/2015

Volver arriba Ir abajo

Re: Thor: Ragnarok (2017) [AC3 2.0] [Cam Audio] [MEGA/GOOGLEDRIVE]

Mensaje por rocove1 el Mar Ene 23, 2018 8:53 pm

gracias

rocove1
Novato
Novato

Mensajes : 17
Fecha de inscripción : 17/03/2015

Volver arriba Ir abajo

Re: Thor: Ragnarok (2017) [AC3 2.0] [Cam Audio] [MEGA/GOOGLEDRIVE]

Mensaje por iTzMiguelHdz el Mar Ene 23, 2018 9:15 pm

Gracias!!

iTzMiguelHdz
Novato
Novato

Mensajes : 2
Fecha de inscripción : 22/06/2017
Edad : 18

Volver arriba Ir abajo

Re: Thor: Ragnarok (2017) [AC3 2.0] [Cam Audio] [MEGA/GOOGLEDRIVE]

Mensaje por jlaudios4 el Mar Ene 23, 2018 9:53 pm

gracias

jlaudios4
Novato
Novato

Mensajes : 6
Fecha de inscripción : 22/01/2018

Volver arriba Ir abajo

Gracias

Mensaje por palordpanci el Mar Ene 23, 2018 9:54 pm

Jar26SJ escribió:
Thor: Ragnarok (2017)

MediaInfo:
Código:
Audio
Format                      : AC-3
Format/Info                 : Audio Coding 3
Format settings, Endianness : Big
Duration                    : 2 h 10 min
Bit rate mode               : Constant
Bit rate                    : 128 kb/s
Channel(s)                  : 2 channels
Channel positions           : Front: L R
Sampling rate               : 44.1 kHz
Frame rate                  : 28.711 FPS (1536 SPF)
Bit depth                   : 16 bits
Compression mode            : Lossy
Stream size                 : 120 MiB (100%)
Service kind                : Complete Main

Comentar Para Ver El LINK.
¡Agradecer No Cuesta Nada!


¿Cómo Descargar?



Colocar el LINK de descarga directa en comentarios INHABILITARÁ AUTOMÁTICAMENTE el enlace hasta nuevo aviso.


POSTDATA: Como el titulo lo dice el audio fue obtenido directamente del cine, pero la calidad es medianamente buena, solo se escucha alguno que otro murmullo por algunos segundos en una parte del audio. Cuando salga el Blu-ray oficial en unas 3 o 4 semanas se publicará el audio oficial.

Contraseña: audiosparapeliculas.foroa.org

palordpanci
Novato
Novato

Mensajes : 12
Fecha de inscripción : 04/09/2016

Volver arriba Ir abajo

Re: Thor: Ragnarok (2017) [AC3 2.0] [Cam Audio] [MEGA/GOOGLEDRIVE]

Mensaje por pepe sols el Mar Ene 23, 2018 10:09 pm

gracias

pepe sols
Novato
Novato

Mensajes : 76
Fecha de inscripción : 12/01/2017

Volver arriba Ir abajo

Re: Thor: Ragnarok (2017) [AC3 2.0] [Cam Audio] [MEGA/GOOGLEDRIVE]

Mensaje por andrewsmx el Mar Ene 23, 2018 10:30 pm

grax

andrewsmx
Novato
Novato

Mensajes : 42
Fecha de inscripción : 01/02/2017

Volver arriba Ir abajo

Re: Thor: Ragnarok (2017) [AC3 2.0] [Cam Audio] [MEGA/GOOGLEDRIVE]

Mensaje por eltactoincreible el Mar Ene 23, 2018 11:30 pm

gracias

eltactoincreible
Novato
Novato

Mensajes : 4
Fecha de inscripción : 04/01/2018

Volver arriba Ir abajo

Re: Thor: Ragnarok (2017) [AC3 2.0] [Cam Audio] [MEGA/GOOGLEDRIVE]

Mensaje por indexx el Mar Ene 23, 2018 11:46 pm

gracias

indexx
Novato
Novato

Mensajes : 2
Fecha de inscripción : 23/01/2018

Volver arriba Ir abajo

Re: Thor: Ragnarok (2017) [AC3 2.0] [Cam Audio] [MEGA/GOOGLEDRIVE]

Mensaje por indexx el Mar Ene 23, 2018 11:48 pm

gracias

indexx
Novato
Novato

Mensajes : 2
Fecha de inscripción : 23/01/2018

Volver arriba Ir abajo

Re: Thor: Ragnarok (2017) [AC3 2.0] [Cam Audio] [MEGA/GOOGLEDRIVE]

Mensaje por Tletltecuhtli el Miér Ene 24, 2018 1:26 am

gracias man

Tletltecuhtli
Novato
Novato

Mensajes : 2
Fecha de inscripción : 07/10/2017

Volver arriba Ir abajo

Re: Thor: Ragnarok (2017) [AC3 2.0] [Cam Audio] [MEGA/GOOGLEDRIVE]

Mensaje por memoze2117 el Miér Ene 24, 2018 5:37 am

se agradece master

memoze2117
Novato
Novato

Mensajes : 10
Fecha de inscripción : 13/11/2015

Volver arriba Ir abajo

Re: Thor: Ragnarok (2017) [AC3 2.0] [Cam Audio] [MEGA/GOOGLEDRIVE]

Mensaje por ramv el Miér Ene 24, 2018 6:13 am

Laughing

ramv
Novato
Novato

Mensajes : 84
Fecha de inscripción : 02/10/2016

Volver arriba Ir abajo

Gracias amigo

Mensaje por joshgrafcs el Miér Ene 24, 2018 6:48 am

Gracias amigo estuve buscando este audio para mis hijos que aman a Thor y la consegui 4k pero en ingles y con esto hago el juego!

joshgrafcs
Novato
Novato

Mensajes : 2
Fecha de inscripción : 28/12/2017

Volver arriba Ir abajo

Re: Thor: Ragnarok (2017) [AC3 2.0] [Cam Audio] [MEGA/GOOGLEDRIVE]

Mensaje por joshgrafcs el Miér Ene 24, 2018 6:49 am

gracias

joshgrafcs
Novato
Novato

Mensajes : 2
Fecha de inscripción : 28/12/2017

Volver arriba Ir abajo

Re: Thor: Ragnarok (2017) [AC3 2.0] [Cam Audio] [MEGA/GOOGLEDRIVE]

Mensaje por CH3L0 el Miér Ene 24, 2018 6:56 am

Buen aporte, Muchas gracias!

CH3L0
Novato
Novato

Mensajes : 2
Fecha de inscripción : 22/12/2017

Volver arriba Ir abajo

Re: Thor: Ragnarok (2017) [AC3 2.0] [Cam Audio] [MEGA/GOOGLEDRIVE]

Mensaje por pepino el Miér Ene 24, 2018 7:05 am

Buen aporte, Muchas gracias!

pepino
Novato
Novato

Mensajes : 23
Fecha de inscripción : 07/03/2016

Volver arriba Ir abajo

Re: Thor: Ragnarok (2017) [AC3 2.0] [Cam Audio] [MEGA/GOOGLEDRIVE]

Mensaje por Contenido patrocinado


Contenido patrocinado


Volver arriba Ir abajo

Página 6 de 26. Precedente  1 ... 5, 6, 7 ... 16 ... 26  Siguiente

Volver arriba

- Temas similares

 
Permisos de este foro:
No puedes responder a temas en este foro.