Thor: Ragnarok (2017) [AC3 2.0] [Cam Audio] [MEGA/GOOGLEDRIVE]

Página 22 de 28. Precedente  1 ... 12 ... 21, 22, 23 ... 28  Siguiente

Ir abajo

gracias xd

Mensaje por sirdark666 el Jue Feb 08, 2018 10:26 am

Jar26SJ escribió:
Thor: Ragnarok (2017)

MediaInfo:
Código:
Audio
Format                      : AC-3
Format/Info                 : Audio Coding 3
Format settings, Endianness : Big
Duration                    : 2 h 10 min
Bit rate mode               : Constant
Bit rate                    : 128 kb/s
Channel(s)                  : 2 channels
Channel positions           : Front: L R
Sampling rate               : 44.1 kHz
Frame rate                  : 28.711 FPS (1536 SPF)
Bit depth                   : 16 bits
Compression mode            : Lossy
Stream size                 : 120 MiB (100%)
Service kind                : Complete Main

Comentar Para Ver El LINK.
¡Agradecer No Cuesta Nada!


¿Cómo Descargar?



Colocar el LINK de descarga directa en comentarios INHABILITARÁ AUTOMÁTICAMENTE el enlace hasta nuevo aviso.


POSTDATA: Como el titulo lo dice el audio fue obtenido directamente del cine, pero la calidad es medianamente buena, solo se escucha alguno que otro murmullo por algunos segundos en una parte del audio. Cuando salga el Blu-ray oficial en unas 3 o 4 semanas se publicará el audio oficial.

Contraseña: audiosparapeliculas.foroa.org

sirdark666
Novato
Novato

Mensajes : 5
Fecha de inscripción : 08/11/2017

Volver arriba Ir abajo

Re: Thor: Ragnarok (2017) [AC3 2.0] [Cam Audio] [MEGA/GOOGLEDRIVE]

Mensaje por sirdark666 el Jue Feb 08, 2018 10:26 am

gracias

sirdark666
Novato
Novato

Mensajes : 5
Fecha de inscripción : 08/11/2017

Volver arriba Ir abajo

Re: Thor: Ragnarok (2017) [AC3 2.0] [Cam Audio] [MEGA/GOOGLEDRIVE]

Mensaje por sirdark666 el Jue Feb 08, 2018 10:34 am

donde esta el link??????

sirdark666
Novato
Novato

Mensajes : 5
Fecha de inscripción : 08/11/2017

Volver arriba Ir abajo

Re: Thor: Ragnarok (2017) [AC3 2.0] [Cam Audio] [MEGA/GOOGLEDRIVE]

Mensaje por mhernandezg1 el Jue Feb 08, 2018 10:44 am

Gracias!

mhernandezg1
Novato
Novato

Mensajes : 3
Fecha de inscripción : 08/02/2018

Volver arriba Ir abajo

Re: Thor: Ragnarok (2017) [AC3 2.0] [Cam Audio] [MEGA/GOOGLEDRIVE]

Mensaje por mhernandezg1 el Jue Feb 08, 2018 10:46 am

gracias por el audio

mhernandezg1
Novato
Novato

Mensajes : 3
Fecha de inscripción : 08/02/2018

Volver arriba Ir abajo

Re: Thor: Ragnarok (2017) [AC3 2.0] [Cam Audio] [MEGA/GOOGLEDRIVE]

Mensaje por mhernandezg1 el Jue Feb 08, 2018 11:02 am

Audio
Format                      : AC-3
Format/Info                 : Audio Coding 3
Format settings, Endianness : Big
Duration                    : 2 h 10 min
Bit rate mode               : Constant
Bit rate                    : 128 kb/s
Channel(s)                  : 2 channels
Channel positions           : Front: L R
Sampling rate               : 44.1 kHz
Frame rate                  : 28.711 FPS (1536 SPF)
Bit depth                   : 16 bits
Compression mode            : Lossy
Stream size                 : 120 MiB (100%)
Service kind                : Complete Main

mhernandezg1
Novato
Novato

Mensajes : 3
Fecha de inscripción : 08/02/2018

Volver arriba Ir abajo

Re: Thor: Ragnarok (2017) [AC3 2.0] [Cam Audio] [MEGA/GOOGLEDRIVE]

Mensaje por MarcosXII el Jue Feb 08, 2018 6:21 pm

muchas gracias amigo Smile

MarcosXII
Novato
Novato

Mensajes : 19
Fecha de inscripción : 30/09/2017

Volver arriba Ir abajo

Re: Thor: Ragnarok (2017) [AC3 2.0] [Cam Audio] [MEGA/GOOGLEDRIVE]

Mensaje por certux el Jue Feb 08, 2018 7:20 pm

ok

certux
Novato
Novato

Mensajes : 35
Fecha de inscripción : 28/12/2014

Volver arriba Ir abajo

Re: Thor: Ragnarok (2017) [AC3 2.0] [Cam Audio] [MEGA/GOOGLEDRIVE]

Mensaje por necromarco el Jue Feb 08, 2018 10:03 pm

gracias por el audio

necromarco
Novato
Novato

Mensajes : 19
Fecha de inscripción : 27/11/2015

Volver arriba Ir abajo

Re: Thor: Ragnarok (2017) [AC3 2.0] [Cam Audio] [MEGA/GOOGLEDRIVE]

Mensaje por arturo75 el Vie Feb 09, 2018 1:07 am

gracias

arturo75
Novato
Novato

Mensajes : 45
Fecha de inscripción : 17/07/2015

Volver arriba Ir abajo

Re: Thor: Ragnarok (2017) [AC3 2.0] [Cam Audio] [MEGA/GOOGLEDRIVE]

Mensaje por wndsolv123 el Vie Feb 09, 2018 6:09 am

Gracias!!!

wndsolv123
Novato
Novato

Mensajes : 1
Fecha de inscripción : 09/02/2018

Volver arriba Ir abajo

Re: Thor: Ragnarok (2017) [AC3 2.0] [Cam Audio] [MEGA/GOOGLEDRIVE]

Mensaje por Cgastu el Vie Feb 09, 2018 8:54 am

Gracias

Cgastu
Novato
Novato

Mensajes : 28
Fecha de inscripción : 25/07/2016

Volver arriba Ir abajo

Re: Thor: Ragnarok (2017) [AC3 2.0] [Cam Audio] [MEGA/GOOGLEDRIVE]

Mensaje por joel98 el Vie Feb 09, 2018 9:01 am

gracias es lo que estaba buscando

joel98
Novato
Novato

Mensajes : 2
Fecha de inscripción : 09/02/2018

Volver arriba Ir abajo

Re: Thor: Ragnarok (2017) [AC3 2.0] [Cam Audio] [MEGA/GOOGLEDRIVE]

Mensaje por joel98 el Vie Feb 09, 2018 9:05 am

y el link??

joel98
Novato
Novato

Mensajes : 2
Fecha de inscripción : 09/02/2018

Volver arriba Ir abajo

Re: Thor: Ragnarok (2017) [AC3 2.0] [Cam Audio] [MEGA/GOOGLEDRIVE]

Mensaje por w3r0 el Vie Feb 09, 2018 9:08 am

gracias

w3r0
Novato
Novato

Mensajes : 4
Fecha de inscripción : 13/10/2016

Volver arriba Ir abajo

Re: Thor: Ragnarok (2017) [AC3 2.0] [Cam Audio] [MEGA/GOOGLEDRIVE]

Mensaje por goyo1203 el Vie Feb 09, 2018 10:57 am

gracias

goyo1203
Novato
Novato

Mensajes : 1
Fecha de inscripción : 10/10/2017

Volver arriba Ir abajo

Re: Thor: Ragnarok (2017) [AC3 2.0] [Cam Audio] [MEGA/GOOGLEDRIVE]

Mensaje por Josue1994_2 el Vie Feb 09, 2018 11:29 am

gracias

Josue1994_2
Novato
Novato

Mensajes : 8
Fecha de inscripción : 28/08/2015

Volver arriba Ir abajo

on ta el link

Mensaje por luise.gc90 el Vie Feb 09, 2018 11:32 am

gracias

luise.gc90
Novato
Novato

Mensajes : 1
Fecha de inscripción : 09/02/2018

Volver arriba Ir abajo

Re: Thor: Ragnarok (2017) [AC3 2.0] [Cam Audio] [MEGA/GOOGLEDRIVE]

Mensaje por Luis Jurado el Vie Feb 09, 2018 2:40 pm

gracias por el aporte

Luis Jurado
Novato
Novato

Mensajes : 17
Fecha de inscripción : 27/01/2017

Volver arriba Ir abajo

Re: Thor: Ragnarok (2017) [AC3 2.0] [Cam Audio] [MEGA/GOOGLEDRIVE]

Mensaje por Luis Jurado el Vie Feb 09, 2018 2:52 pm

sigue adelante

Luis Jurado
Novato
Novato

Mensajes : 17
Fecha de inscripción : 27/01/2017

Volver arriba Ir abajo

Re: Thor: Ragnarok (2017) [AC3 2.0] [Cam Audio] [MEGA/GOOGLEDRIVE]

Mensaje por SR-Vic el Vie Feb 09, 2018 5:05 pm

thans'!

SR-Vic
Novato
Novato

Mensajes : 4
Fecha de inscripción : 05/02/2017

Volver arriba Ir abajo

Re: Thor: Ragnarok (2017) [AC3 2.0] [Cam Audio] [MEGA/GOOGLEDRIVE]

Mensaje por lemuria6 el Vie Feb 09, 2018 5:34 pm

Gracias amigo

lemuria6
Novato
Novato

Mensajes : 1
Fecha de inscripción : 04/02/2018

Volver arriba Ir abajo

Re: Thor: Ragnarok (2017) [AC3 2.0] [Cam Audio] [MEGA/GOOGLEDRIVE]

Mensaje por F3RR3YRA el Vie Feb 09, 2018 7:24 pm

donde esta el link

F3RR3YRA
Novato
Novato

Mensajes : 1
Fecha de inscripción : 17/02/2017

Volver arriba Ir abajo

Re: Thor: Ragnarok (2017) [AC3 2.0] [Cam Audio] [MEGA/GOOGLEDRIVE]

Mensaje por DRMD el Vie Feb 09, 2018 7:32 pm

Gracias !!! "esperar para probarlo"

DRMD
Novato
Novato

Mensajes : 1
Fecha de inscripción : 09/02/2018

Volver arriba Ir abajo

Re: Thor: Ragnarok (2017) [AC3 2.0] [Cam Audio] [MEGA/GOOGLEDRIVE]

Mensaje por Wilbert2310 el Vie Feb 09, 2018 8:20 pm

gracias

Wilbert2310
Novato
Novato

Mensajes : 14
Fecha de inscripción : 20/10/2015

Volver arriba Ir abajo

Re: Thor: Ragnarok (2017) [AC3 2.0] [Cam Audio] [MEGA/GOOGLEDRIVE]

Mensaje por Contenido patrocinado


Contenido patrocinado


Volver arriba Ir abajo

Página 22 de 28. Precedente  1 ... 12 ... 21, 22, 23 ... 28  Siguiente

Volver arriba

- Temas similares

 
Permisos de este foro:
No puedes responder a temas en este foro.