Ferdinand (2017) "Olé, El Viaje de Ferdinand" [AC3 5.1 + SUP] [Blu Ray-Rip/DVD-Rip] [MEGA]

Página 19 de 32. Precedente  1 ... 11 ... 18, 19, 20 ... 25 ... 32  Siguiente

Ir abajo

Re: Ferdinand (2017) "Olé, El Viaje de Ferdinand" [AC3 5.1 + SUP] [Blu Ray-Rip/DVD-Rip] [MEGA]

Mensaje por gese1980 el Miér Mar 07, 2018 10:05 pm

gracias, excelente aporte... Very Happy

gese1980
Novato
Novato

Mensajes : 25
Fecha de inscripción : 02/12/2014

Volver arriba Ir abajo

Re: Ferdinand (2017) "Olé, El Viaje de Ferdinand" [AC3 5.1 + SUP] [Blu Ray-Rip/DVD-Rip] [MEGA]

Mensaje por 1701-a el Miér Mar 07, 2018 11:44 pm

Very Happy Very Happy Very Happy Very Happy Very Happy Very Happy Very Happy

1701-a
Novato
Novato

Mensajes : 30
Fecha de inscripción : 06/12/2015

Volver arriba Ir abajo

Re: Ferdinand (2017) "Olé, El Viaje de Ferdinand" [AC3 5.1 + SUP] [Blu Ray-Rip/DVD-Rip] [MEGA]

Mensaje por ITALYBOXER el Jue Mar 08, 2018 12:05 am

Very Happy

ITALYBOXER
Novato
Novato

Mensajes : 93
Fecha de inscripción : 16/12/2016

Volver arriba Ir abajo

Re: Ferdinand (2017) "Olé, El Viaje de Ferdinand" [AC3 5.1 + SUP] [Blu Ray-Rip/DVD-Rip] [MEGA]

Mensaje por kuervo2kkk el Jue Mar 08, 2018 1:11 am

Muchas gracias

kuervo2kkk
Novato
Novato

Mensajes : 75
Fecha de inscripción : 20/07/2017

Volver arriba Ir abajo

Re: Ferdinand (2017) "Olé, El Viaje de Ferdinand" [AC3 5.1 + SUP] [Blu Ray-Rip/DVD-Rip] [MEGA]

Mensaje por someOtherDan el Jue Mar 08, 2018 3:14 am

gracias!

someOtherDan
Novato
Novato

Mensajes : 62
Fecha de inscripción : 12/10/2015

Volver arriba Ir abajo

Re: Ferdinand (2017) "Olé, El Viaje de Ferdinand" [AC3 5.1 + SUP] [Blu Ray-Rip/DVD-Rip] [MEGA]

Mensaje por a-gallegos el Jue Mar 08, 2018 11:04 am

muchas gracias!!

a-gallegos
Novato
Novato

Mensajes : 15
Fecha de inscripción : 07/08/2016

Volver arriba Ir abajo

Re: Ferdinand (2017) "Olé, El Viaje de Ferdinand" [AC3 5.1 + SUP] [Blu Ray-Rip/DVD-Rip] [MEGA]

Mensaje por themkmaster el Jue Mar 08, 2018 11:49 am

Muchas gracias

themkmaster
Novato
Novato

Mensajes : 20
Fecha de inscripción : 23/01/2015

Volver arriba Ir abajo

Re: Ferdinand (2017) "Olé, El Viaje de Ferdinand" [AC3 5.1 + SUP] [Blu Ray-Rip/DVD-Rip] [MEGA]

Mensaje por themkmaster el Jue Mar 08, 2018 11:54 am

No lo pude bajar

themkmaster
Novato
Novato

Mensajes : 20
Fecha de inscripción : 23/01/2015

Volver arriba Ir abajo

Re: Ferdinand (2017) "Olé, El Viaje de Ferdinand" [AC3 5.1 + SUP] [Blu Ray-Rip/DVD-Rip] [MEGA]

Mensaje por coni2858 el Jue Mar 08, 2018 12:47 pm

gracias

coni2858
Novato
Novato

Mensajes : 33
Fecha de inscripción : 13/01/2017

Volver arriba Ir abajo

Re: Ferdinand (2017) "Olé, El Viaje de Ferdinand" [AC3 5.1 + SUP] [Blu Ray-Rip/DVD-Rip] [MEGA]

Mensaje por olopezcortes el Jue Mar 08, 2018 12:53 pm

.

olopezcortes
Novato
Novato

Mensajes : 2
Fecha de inscripción : 26/05/2016

Volver arriba Ir abajo

Re: Ferdinand (2017) "Olé, El Viaje de Ferdinand" [AC3 5.1 + SUP] [Blu Ray-Rip/DVD-Rip] [MEGA]

Mensaje por mzacarias el Jue Mar 08, 2018 1:00 pm

Bakan...graciaaas

mzacarias
Novato
Novato

Mensajes : 1
Fecha de inscripción : 08/05/2017

Volver arriba Ir abajo

Re: Ferdinand (2017) "Olé, El Viaje de Ferdinand" [AC3 5.1 + SUP] [Blu Ray-Rip/DVD-Rip] [MEGA]

Mensaje por jillafo el Jue Mar 08, 2018 2:14 pm

Genial ahora podre verla con mi esposa.

jillafo
Novato
Novato

Mensajes : 11
Fecha de inscripción : 23/10/2017

Volver arriba Ir abajo

Gracias

Mensaje por leandro_ruiz2003@yahoo.co el Jue Mar 08, 2018 4:45 pm

Jar26SJ escribió:
Ferdinand (2017)
Olé, El Viaje de Ferdinand (2017)


MediaInfo:
Código:
Audio
Format                      : AC-3
Format/Info                 : Audio Coding 3
Format settings, Endianness : Big
Duration                    : 1 h 47 min
Bit rate mode               : Constant
Bit rate                    : 384 kb/s - 448 kb/s
Channel(s)                  : 6 channels
Channel positions           : Front: L C R, Side: L R, LFE
Sampling rate               : 48.0 kHz
Frame rate                  : 31.250 FPS (1536 SPF)
Bit depth                   : 16 bits
Compression mode            : Lossy
Stream size                 : 297 MiB - 346 MiB (100%)
Service kind                : Complete Main

COMENTAR PARA VER EL LINK
¡Agradecer No Cuesta Nada!


¿Cómo Descargar?



Colocar el LINK de descarga directa en comentarios INHABILITARÁ AUTOMÁTICAMENTE el enlace hasta nuevo aviso.





Contraseña: audiosparapeliculas.foroa.org

leandro_ruiz2003@yahoo.co
Novato
Novato

Mensajes : 21
Fecha de inscripción : 11/05/2016

Volver arriba Ir abajo

Re: Ferdinand (2017) "Olé, El Viaje de Ferdinand" [AC3 5.1 + SUP] [Blu Ray-Rip/DVD-Rip] [MEGA]

Mensaje por plp0 el Jue Mar 08, 2018 5:13 pm

gracias

plp0
Novato
Novato

Mensajes : 12
Fecha de inscripción : 25/11/2015

Volver arriba Ir abajo

Re: Ferdinand (2017) "Olé, El Viaje de Ferdinand" [AC3 5.1 + SUP] [Blu Ray-Rip/DVD-Rip] [MEGA]

Mensaje por RACSOCASSI el Jue Mar 08, 2018 6:48 pm

muchas gracias

RACSOCASSI
Novato
Novato

Mensajes : 26
Fecha de inscripción : 11/05/2016

Volver arriba Ir abajo

Re: Ferdinand (2017) "Olé, El Viaje de Ferdinand" [AC3 5.1 + SUP] [Blu Ray-Rip/DVD-Rip] [MEGA]

Mensaje por dajhana el Jue Mar 08, 2018 7:54 pm

gracias

dajhana
Novato
Novato

Mensajes : 2
Fecha de inscripción : 19/04/2017

Volver arriba Ir abajo

muchas gracias

Mensaje por dajhana el Jue Mar 08, 2018 7:59 pm

[Tienes que estar registrado y conectado para ver este vínculo] escribió:
Jar26SJ escribió:
Ferdinand (2017)
Olé, El Viaje de Ferdinand (2017)


MediaInfo:
Código:
Audio
Format                      : AC-3
Format/Info                 : Audio Coding 3
Format settings, Endianness : Big
Duration                    : 1 h 47 min
Bit rate mode               : Constant
Bit rate                    : 384 kb/s - 448 kb/s
Channel(s)                  : 6 channels
Channel positions           : Front: L C R, Side: L R, LFE
Sampling rate               : 48.0 kHz
Frame rate                  : 31.250 FPS (1536 SPF)
Bit depth                   : 16 bits
Compression mode            : Lossy
Stream size                 : 297 MiB - 346 MiB (100%)
Service kind                : Complete Main

COMENTAR PARA VER EL LINK
¡Agradecer No Cuesta Nada!


¿Cómo Descargar?



Colocar el LINK de descarga directa en comentarios INHABILITARÁ AUTOMÁTICAMENTE el enlace hasta nuevo aviso.





Contraseña: audiosparapeliculas.foroa.org

dajhana
Novato
Novato

Mensajes : 2
Fecha de inscripción : 19/04/2017

Volver arriba Ir abajo

Re: Ferdinand (2017) "Olé, El Viaje de Ferdinand" [AC3 5.1 + SUP] [Blu Ray-Rip/DVD-Rip] [MEGA]

Mensaje por dosenmorf el Jue Mar 08, 2018 9:10 pm

muchas gracias por el aporte lo estaba buscando


dosenmorf
Novato
Novato

Mensajes : 8
Fecha de inscripción : 11/06/2016

Volver arriba Ir abajo

Re: Ferdinand (2017) "Olé, El Viaje de Ferdinand" [AC3 5.1 + SUP] [Blu Ray-Rip/DVD-Rip] [MEGA]

Mensaje por jeepers81 el Jue Mar 08, 2018 9:46 pm

descargando, probando la calidad, gracias
avatar
jeepers81
Novato
Novato

Mensajes : 67
Fecha de inscripción : 02/09/2016
Edad : 43
Localización : Madrid, España

Volver arriba Ir abajo

Re: Ferdinand (2017) "Olé, El Viaje de Ferdinand" [AC3 5.1 + SUP] [Blu Ray-Rip/DVD-Rip] [MEGA]

Mensaje por gilhdez79* el Jue Mar 08, 2018 11:36 pm

gracias

gilhdez79*
Novato
Novato

Mensajes : 4
Fecha de inscripción : 06/03/2017

Volver arriba Ir abajo

Re: Ferdinand (2017) "Olé, El Viaje de Ferdinand" [AC3 5.1 + SUP] [Blu Ray-Rip/DVD-Rip] [MEGA]

Mensaje por GomezVictor1996 el Vie Mar 09, 2018 8:19 am

Gracias!

GomezVictor1996
Novato
Novato

Mensajes : 28
Fecha de inscripción : 04/05/2016

Volver arriba Ir abajo

Re: Ferdinand (2017) "Olé, El Viaje de Ferdinand" [AC3 5.1 + SUP] [Blu Ray-Rip/DVD-Rip] [MEGA]

Mensaje por jm230780 el Vie Mar 09, 2018 12:11 pm

GRACIAS

jm230780
Novato
Novato

Mensajes : 6
Fecha de inscripción : 19/11/2014

Volver arriba Ir abajo

Re: Ferdinand (2017) "Olé, El Viaje de Ferdinand" [AC3 5.1 + SUP] [Blu Ray-Rip/DVD-Rip] [MEGA]

Mensaje por eternauta74 el Vie Mar 09, 2018 1:48 pm

gracias

eternauta74
Novato
Novato

Mensajes : 20
Fecha de inscripción : 23/08/2014

Volver arriba Ir abajo

Re: Ferdinand (2017) "Olé, El Viaje de Ferdinand" [AC3 5.1 + SUP] [Blu Ray-Rip/DVD-Rip] [MEGA]

Mensaje por totosai1234 el Vie Mar 09, 2018 2:03 pm

Muchas gracias.

totosai1234
Novato
Novato

Mensajes : 21
Fecha de inscripción : 17/02/2016

Volver arriba Ir abajo

Re: Ferdinand (2017) "Olé, El Viaje de Ferdinand" [AC3 5.1 + SUP] [Blu Ray-Rip/DVD-Rip] [MEGA]

Mensaje por Lexfigue el Vie Mar 09, 2018 3:21 pm

Muchísimas gracias!!!

Lexfigue
Novato
Novato

Mensajes : 4
Fecha de inscripción : 25/01/2018

Volver arriba Ir abajo

Re: Ferdinand (2017) "Olé, El Viaje de Ferdinand" [AC3 5.1 + SUP] [Blu Ray-Rip/DVD-Rip] [MEGA]

Mensaje por Contenido patrocinado


Contenido patrocinado


Volver arriba Ir abajo

Página 19 de 32. Precedente  1 ... 11 ... 18, 19, 20 ... 25 ... 32  Siguiente

Volver arriba

- Temas similares

 
Permisos de este foro:
No puedes responder a temas en este foro.