Downsizing (2017) "Pequeña Gran Vida" [AC3 5.1 + SUP] [Blu Ray-Rip] [MEGA]

Página 1 de 7. 1, 2, 3, 4, 5, 6, 7  Siguiente

Ir abajo

Downsizing (2017) "Pequeña Gran Vida" [AC3 5.1 + SUP] [Blu Ray-Rip] [MEGA]

Mensaje por Jar26SJ el Miér Mar 07, 2018 8:45 pm

Downsizing (2017)
Pequeña Gran Vida (2017)
Una Vida A Lo Grande (2017)


MediaInfo:
Código:
Audio
Format                      : AC-3
Format/Info                 : Audio Coding 3
Duration                    : 2 h 15 min
Bit rate mode               : Constant
Bit rate                    : 640 kb/s
Channel(s)                  : 6 channels
Channel positions           : Front: L C R, Side: L R, LFE
Sampling rate               : 48.0 kHz
Frame rate                  : 31.250 FPS (1536 SPF)
Bit depth                   : 16 bits
Compression mode            : Lossy
Stream size                 : 620 MiB (100%)
Service kind                : Complete Main

COMENTAR PARA VER EL LINK
¡Agradecer No Cuesta Nada!


¿Cómo Descargar?



Colocar el LINK de descarga directa en comentarios INHABILITARÁ AUTOMÁTICAMENTE el enlace hasta nuevo aviso.




Contraseña: audiosparapeliculas.foroa.org


Última edición por Jar26SJ el Sáb Abr 07, 2018 3:18 pm, editado 3 veces
avatar
Jar26SJ
Uploader
Uploader

Mensajes : 580
Fecha de inscripción : 26/06/2016
Edad : 26

http://thefuturetechno.blogspot.es/

Volver arriba Ir abajo

Re: Downsizing (2017) "Pequeña Gran Vida" [AC3 5.1 + SUP] [Blu Ray-Rip] [MEGA]

Mensaje por l0k02311 el Miér Mar 07, 2018 9:11 pm

gracias

l0k02311
Novato Pro
Novato Pro

Mensajes : 309
Fecha de inscripción : 06/11/2016

Volver arriba Ir abajo

Re: Downsizing (2017) "Pequeña Gran Vida" [AC3 5.1 + SUP] [Blu Ray-Rip] [MEGA]

Mensaje por chevos el Miér Mar 07, 2018 9:14 pm

gracias

chevos
Novato
Novato

Mensajes : 42
Fecha de inscripción : 25/11/2015

Volver arriba Ir abajo

Re: Downsizing (2017) "Pequeña Gran Vida" [AC3 5.1 + SUP] [Blu Ray-Rip] [MEGA]

Mensaje por Alceweb el Miér Mar 07, 2018 9:24 pm

Muchisimas gracias bro, esta la quiero ver por como se ve el agente bourne en miniatura jajaja un saludo
avatar
Alceweb
Novato
Novato

Mensajes : 50
Fecha de inscripción : 03/07/2016

Volver arriba Ir abajo

Re: Downsizing (2017) "Pequeña Gran Vida" [AC3 5.1 + SUP] [Blu Ray-Rip] [MEGA]

Mensaje por NickMan016 el Miér Mar 07, 2018 9:42 pm

Gracias
avatar
NickMan016
Novato Avanzado
Novato Avanzado

Mensajes : 137
Fecha de inscripción : 27/04/2017

Volver arriba Ir abajo

Re: Downsizing (2017) "Pequeña Gran Vida" [AC3 5.1 + SUP] [Blu Ray-Rip] [MEGA]

Mensaje por pcoplin el Miér Mar 07, 2018 9:48 pm

gracias

pcoplin
Novato
Novato

Mensajes : 21
Fecha de inscripción : 28/05/2017

Volver arriba Ir abajo

Re: Downsizing (2017) "Pequeña Gran Vida" [AC3 5.1 + SUP] [Blu Ray-Rip] [MEGA]

Mensaje por miguelomendez el Miér Mar 07, 2018 9:56 pm

gracias

miguelomendez
Novato
Novato

Mensajes : 19
Fecha de inscripción : 10/05/2017

Volver arriba Ir abajo

Re: Downsizing (2017) "Pequeña Gran Vida" [AC3 5.1 + SUP] [Blu Ray-Rip] [MEGA]

Mensaje por nelsong el Miér Mar 07, 2018 10:05 pm

gr

nelsong
Novato
Novato

Mensajes : 29
Fecha de inscripción : 19/10/2017

Volver arriba Ir abajo

gracias

Mensaje por palordpanci el Miér Mar 07, 2018 10:08 pm

Jar26SJ escribió:
Downsizing (2017)
Pequeña Gran Vida (2017)
Una Vida A Lo Grande (2017)


MediaInfo:
Código:
Audio
Format                      : AC-3
Format/Info                 : Audio Coding 3
Duration                    : 2 h 15 min
Bit rate mode               : Constant
Bit rate                    : 640 kb/s
Channel(s)                  : 6 channels
Channel positions           : Front: L C R, Side: L R, LFE
Sampling rate               : 48.0 kHz
Frame rate                  : 31.250 FPS (1536 SPF)
Bit depth                   : 16 bits
Compression mode            : Lossy
Stream size                 : 620 MiB (100%)
Service kind                : Complete Main

COMENTAR PARA VER EL LINK
¡Agradecer No Cuesta Nada!


¿Cómo Descargar?



Colocar el LINK de descarga directa en comentarios INHABILITARÁ AUTOMÁTICAMENTE el enlace hasta nuevo aviso.




Contraseña: audiosparapeliculas.foroa.org

palordpanci
Novato
Novato

Mensajes : 25
Fecha de inscripción : 04/09/2016

Volver arriba Ir abajo

Excelente aporte

Mensaje por publi_r el Miér Mar 07, 2018 11:07 pm

Gracias por el aporte Wink

publi_r
Novato
Novato

Mensajes : 30
Fecha de inscripción : 18/03/2015

Volver arriba Ir abajo

Re: Downsizing (2017) "Pequeña Gran Vida" [AC3 5.1 + SUP] [Blu Ray-Rip] [MEGA]

Mensaje por misterj7 el Miér Mar 07, 2018 11:10 pm

Gracias

misterj7
Novato Pro
Novato Pro

Mensajes : 163
Fecha de inscripción : 12/07/2017

Volver arriba Ir abajo

Re: Downsizing (2017) "Pequeña Gran Vida" [AC3 5.1 + SUP] [Blu Ray-Rip] [MEGA]

Mensaje por smartjr el Miér Mar 07, 2018 11:33 pm

gracias cheers
avatar
smartjr
Novato Avanzado
Novato Avanzado

Mensajes : 112
Fecha de inscripción : 18/06/2016
Localización : guatemala

Volver arriba Ir abajo

Re: Downsizing (2017) "Pequeña Gran Vida" [AC3 5.1 + SUP] [Blu Ray-Rip] [MEGA]

Mensaje por timetravell3r el Miér Mar 07, 2018 11:52 pm

Gracias.

timetravell3r
Novato Pro
Novato Pro

Mensajes : 176
Fecha de inscripción : 16/09/2015

Volver arriba Ir abajo

Re: Downsizing (2017) "Pequeña Gran Vida" [AC3 5.1 + SUP] [Blu Ray-Rip] [MEGA]

Mensaje por ruben23852 el Jue Mar 08, 2018 12:06 am

Gracias!!!

ruben23852
Novato Avanzado
Novato Avanzado

Mensajes : 101
Fecha de inscripción : 18/02/2018

Volver arriba Ir abajo

Re: Downsizing (2017) "Pequeña Gran Vida" [AC3 5.1 + SUP] [Blu Ray-Rip] [MEGA]

Mensaje por ITALYBOXER el Jue Mar 08, 2018 12:20 am

Very Happy

ITALYBOXER
Novato
Novato

Mensajes : 93
Fecha de inscripción : 16/12/2016

Volver arriba Ir abajo

Re: Downsizing (2017) "Pequeña Gran Vida" [AC3 5.1 + SUP] [Blu Ray-Rip] [MEGA]

Mensaje por peralta_c38 el Jue Mar 08, 2018 12:27 am

grax bro

peralta_c38
Novato
Novato

Mensajes : 13
Fecha de inscripción : 28/10/2014

Volver arriba Ir abajo

Re: Downsizing (2017) "Pequeña Gran Vida" [AC3 5.1 + SUP] [Blu Ray-Rip] [MEGA]

Mensaje por ngeta007 el Jue Mar 08, 2018 12:56 am

gracias

ngeta007
Novato
Novato

Mensajes : 91
Fecha de inscripción : 04/04/2014

Volver arriba Ir abajo

Re: Downsizing (2017) "Pequeña Gran Vida" [AC3 5.1 + SUP] [Blu Ray-Rip] [MEGA]

Mensaje por sethher el Jue Mar 08, 2018 4:10 am

gracias por el audio

sethher
Novato
Novato

Mensajes : 19
Fecha de inscripción : 13/07/2015

Volver arriba Ir abajo

Re: Downsizing (2017) "Pequeña Gran Vida" [AC3 5.1 + SUP] [Blu Ray-Rip] [MEGA]

Mensaje por TrueOne el Jue Mar 08, 2018 4:10 am

THX.

TrueOne
Novato Pro
Novato Pro

Mensajes : 162
Fecha de inscripción : 15/10/2017

Volver arriba Ir abajo

Re: Downsizing (2017) "Pequeña Gran Vida" [AC3 5.1 + SUP] [Blu Ray-Rip] [MEGA]

Mensaje por martinedu el Jue Mar 08, 2018 5:33 am

gran aporte

martinedu
Novato
Novato

Mensajes : 48
Fecha de inscripción : 10/03/2015

Volver arriba Ir abajo

Re: Downsizing (2017) "Pequeña Gran Vida" [AC3 5.1 + SUP] [Blu Ray-Rip] [MEGA]

Mensaje por laley1990 el Jue Mar 08, 2018 6:29 am

Idolo

laley1990
Novato
Novato

Mensajes : 51
Fecha de inscripción : 19/05/2017

Volver arriba Ir abajo

Re: Downsizing (2017) "Pequeña Gran Vida" [AC3 5.1 + SUP] [Blu Ray-Rip] [MEGA]

Mensaje por diego289 el Jue Mar 08, 2018 7:28 am

Gracias.

diego289
Novato
Novato

Mensajes : 27
Fecha de inscripción : 13/08/2015

Volver arriba Ir abajo

Re: Downsizing (2017) "Pequeña Gran Vida" [AC3 5.1 + SUP] [Blu Ray-Rip] [MEGA]

Mensaje por erick.veloso el Jue Mar 08, 2018 7:58 am

gracias

erick.veloso
Novato
Novato

Mensajes : 23
Fecha de inscripción : 14/03/2017

Volver arriba Ir abajo

Re: Downsizing (2017) "Pequeña Gran Vida" [AC3 5.1 + SUP] [Blu Ray-Rip] [MEGA]

Mensaje por erick.veloso el Jue Mar 08, 2018 7:59 am

gracias.

erick.veloso
Novato
Novato

Mensajes : 23
Fecha de inscripción : 14/03/2017

Volver arriba Ir abajo

Re: Downsizing (2017) "Pequeña Gran Vida" [AC3 5.1 + SUP] [Blu Ray-Rip] [MEGA]

Mensaje por chente7 el Jue Mar 08, 2018 8:07 am

grasias por el aporte

chente7
Novato Pro
Novato Pro

Mensajes : 160
Fecha de inscripción : 01/11/2016

Volver arriba Ir abajo

Re: Downsizing (2017) "Pequeña Gran Vida" [AC3 5.1 + SUP] [Blu Ray-Rip] [MEGA]

Mensaje por Contenido patrocinado


Contenido patrocinado


Volver arriba Ir abajo

Página 1 de 7. 1, 2, 3, 4, 5, 6, 7  Siguiente

Volver arriba

- Temas similares

 
Permisos de este foro:
No puedes responder a temas en este foro.