Beverly Hills Cop II - Un Detective Suelto en Hollywood II [1987][2.0][AC-3][MEGA][LATINO]

Ver el tema anterior Ver el tema siguiente Ir abajo

Beverly Hills Cop II - Un Detective Suelto en Hollywood II [1987][2.0][AC-3][MEGA][LATINO]

Mensaje por jansel90 el Miér Mayo 21, 2014 9:59 am

BEVERLY HILLS COP II [1987]





Código:
Audio

Format...........................: AC-3
Duration.........................: 1h 42mn 59s
Channel(s).......................: 2 channels
Bit rate............................: 192 Kbps
Sampling rate....................: 48.0 KHz
File size........................: 141 MB (100%)






Pasword: audiosparapeliculas.foroa.org



[Tienes que estar registrado y conectado para ver este vínculo]
[Tienes que estar registrado y conectado para ver este vínculo]


avatar
jansel90
Moderador
Moderador

Mensajes : 456
Fecha de inscripción : 30/07/2013

Volver arriba Ir abajo

Re: Beverly Hills Cop II - Un Detective Suelto en Hollywood II [1987][2.0][AC-3][MEGA][LATINO]

Mensaje por resplandor el Dom Mar 06, 2016 9:03 pm

Muchas gracias por el aporte!
Funciona para el release: Beverly.Hills.Cop.II.1987.1080p.BluRay.DTS.x264-DON
Solo hay que agregar un delay de -1000 ms

Código:
General
Unique ID                                : 218967354473212596158612286888894266738 (0xA4BB94176ADBF097A0AC94DE8963FD72)
Complete name                            : Beverly.Hills.Cop.II.1987.1080p.BluRay.DTS.x264-DON.mkv
Format                                  : Matroska
Format version                          : Version 2
File size                                : 17.0 GiB
Duration                                : 1h 42mn
Overall bit rate                        : 23.6 Mbps
Encoded date                            : UTC 2012-11-27 15:27:04
Writing application                      : mkvmerge v5.0.1 ('Es ist Sommer') built on Oct  9 2011 11:55:43
Writing library                          : libebml v1.2.2 + libmatroska v1.3.0

Video
ID                                      : 1
Format                                  : AVC
Format/Info                              : Advanced Video Codec
Format profile                          : High@L4.1
Format settings, CABAC                  : Yes
Format settings, ReFrames                : 5 frames
Codec ID                                : V_MPEG4/ISO/AVC
Duration                                : 1h 42mn
Bit rate                                : 22.1 Mbps
Width                                    : 1 920 pixels
Height                                  : 818 pixels
Display aspect ratio                    : 2.35:1
Frame rate mode                          : Constant
Frame rate                              : 23.976 (24000/1001) fps
Color space                              : YUV
Chroma subsampling                      : 4:2:0
Bit depth                                : 8 bits
Scan type                                : Progressive
Bits/(Pixel*Frame)                      : 0.587
Stream size                              : 15.6 GiB (92%)
Title                                    : DON by LoRdScAb
Writing library                          : x264 core 129 r2230 1cffe9f
Encoding settings                        : cabac=1 / ref=5 / deblock=1:-3:-3 / analyse=0x3:0x113 / me=umh / subme=11 / psy=1 / psy_rd=0.90:0.00 / mixed_ref=1 / me_range=32 / chroma_me=1 / trellis=2 / 8x8dct=1 / cqm=0 / deadzone=21,11 / fast_pskip=0 / chroma_qp_offset=-2 / threads=12 / lookahead_threads=2 / sliced_threads=0 / nr=0 / decimate=0 / interlaced=0 / bluray_compat=0 / constrained_intra=0 / bframes=9 / b_pyramid=2 / b_adapt=2 / b_bias=0 / direct=3 / weightb=1 / open_gop=0 / weightp=2 / keyint=240 / keyint_min=23 / scenecut=40 / intra_refresh=0 / rc_lookahead=40 / rc=2pass / mbtree=0 / bitrate=22122 / ratetol=1.0 / qcomp=0.70 / qpmin=0 / qpmax=69 / qpstep=4 / cplxblur=20.0 / qblur=0.5 / vbv_maxrate=50000 / vbv_bufsize=62500 / nal_hrd=none / ip_ratio=1.40 / pb_ratio=1.15 / aq=1:0.50
Language                                : English
Default                                  : Yes
Forced                                  : No

Audio
ID                                      : 2
Format                                  : DTS
Format/Info                              : Digital Theater Systems
Mode                                    : 16
Format settings, Endianness              : Big
Codec ID                                : A_DTS
Duration                                : 1h 42mn
Bit rate mode                            : Constant
Bit rate                                : 1 509 Kbps
Channel(s)                              : 6 channels
Channel positions                        : Front: L C R, Side: L R, LFE
Sampling rate                            : 48.0 KHz
Frame rate                              : 93.750 fps (512 spf)
Bit depth                                : 24 bits
Compression mode                        : Lossy
Stream size                              : 1.09 GiB (6%)
Title                                    : Core
Language                                : English
Default                                  : Yes
Forced                                  : No

Text
ID                                      : 3
Format                                  : UTF-8
Codec ID                                : S_TEXT/UTF8
Codec ID/Info                            : UTF-8 Plain Text
Language                                : English
Default                                  : No
Forced                                  : No

Menu
00:00:00.000                            : :00:00:00.000
00:02:52.005                            : :00:02:52.005
00:09:17.056                            : :00:09:17.056
00:14:30.286                            : :00:14:30.286
00:22:11.622                            : :00:22:11.622
00:29:30.102                            : :00:29:30.102
00:46:25.741                            : :00:46:25.741
00:52:25.142                            : :00:52:25.142
01:02:05.722                            : :01:02:05.722
01:15:37.366                            : :01:15:37.366
01:23:45.520                            : :01:23:45.520
01:36:35.790                            : :01:36:35.790
01:38:53.344                            : :01:38:53.344

avatar
resplandor
Novato Pro
Novato Pro

Mensajes : 252
Fecha de inscripción : 12/07/2015

Volver arriba Ir abajo

Re: Beverly Hills Cop II - Un Detective Suelto en Hollywood II [1987][2.0][AC-3][MEGA][LATINO]

Mensaje por bronson1988 el Sáb Mayo 06, 2017 8:20 am

Muchas gracias por el audio, ojala se oiga bien, slds.

bronson1988
Novato
Novato

Mensajes : 5
Fecha de inscripción : 26/07/2015

Volver arriba Ir abajo

Re: Beverly Hills Cop II - Un Detective Suelto en Hollywood II [1987][2.0][AC-3][MEGA][LATINO]

Mensaje por ObsidianGott el Mar Ago 08, 2017 11:29 am

¡Gracias por este audio!

ObsidianGott
Novato
Novato

Mensajes : 28
Fecha de inscripción : 28/07/2017

Volver arriba Ir abajo

Re: Beverly Hills Cop II - Un Detective Suelto en Hollywood II [1987][2.0][AC-3][MEGA][LATINO]

Mensaje por Contenido patrocinado


Contenido patrocinado


Volver arriba Ir abajo

Ver el tema anterior Ver el tema siguiente Volver arriba

- Temas similares

 
Permisos de este foro:
No puedes responder a temas en este foro.