La noche de los muertos vivientes - Night of the Living Dead [1990][AC3][5.1][SOLIDFILES][LATINO]

Ver el tema anterior Ver el tema siguiente Ir abajo

La noche de los muertos vivientes - Night of the Living Dead [1990][AC3][5.1][SOLIDFILES][LATINO]

Mensaje por cesarcl el Vie Jul 18, 2014 4:34 am

Night of the Living Dead [1990]
EXCLUSIVA AUDIOSPARAPELICULAS.FOROA.ORG
Siete desconocidos quedan atrapados en una granja solitaria mientras unos zombis caníbales, que recobran vida por la influencia de una onda espacial radiactiva, emprenden un ataque despiadado y atacan a todo aquel que encuentran a su paso... Remake del clásico de terror de mismo nombre dirigido en 1968 por George A. Romero -aquí en labores de guionista-.
Código:
Source...........................: TVrip
Format...........................: AC-3
Duration.........................: 1h 28m 15s
Bit rate.........................: 384 Kbps
Channel(s).......................: 6 channels
File size........................: 242 MB
Audio extraído del TVrip y sincronizado con el BRrip en inglés: Night.of.the.Living.Dead.1990.1080p.BluRay.x264.anoXmous (torrent)
Duration.........................: 1h 28m 15s
Delay a utilizar.................: 0 ms
Frames per second................: 23,976

[Tienes que estar registrado y conectado para ver este vínculo]
PASS: audiosparapeliculas.foroa.org


Última edición por cesarcl el Miér Ago 17, 2016 1:57 am, editado 3 veces
avatar
cesarcl
Moderador
Moderador

Mensajes : 2883
Fecha de inscripción : 06/03/2014

Volver arriba Ir abajo

Re: La noche de los muertos vivientes - Night of the Living Dead [1990][AC3][5.1][SOLIDFILES][LATINO]

Mensaje por cesarcl el Vie Jul 18, 2014 4:37 am

Notas del uploader: el audio extraído del tvrip no tiene buena calidad, por lo tanto se ha remasterizado el audio con la base del 5.1 en inglés, modificando el canal central.
avatar
cesarcl
Moderador
Moderador

Mensajes : 2883
Fecha de inscripción : 06/03/2014

Volver arriba Ir abajo

Re: La noche de los muertos vivientes - Night of the Living Dead [1990][AC3][5.1][SOLIDFILES][LATINO]

Mensaje por ryu30 el Miér Dic 02, 2015 4:30 pm

gracias

ryu30
Novato
Novato

Mensajes : 32
Fecha de inscripción : 02/12/2015

Volver arriba Ir abajo

Re: La noche de los muertos vivientes - Night of the Living Dead [1990][AC3][5.1][SOLIDFILES][LATINO]

Mensaje por jonaand el Mar Ago 16, 2016 11:12 pm

caido
avatar
jonaand
Uploader
Uploader

Mensajes : 374
Fecha de inscripción : 22/08/2014

Volver arriba Ir abajo

Re: La noche de los muertos vivientes - Night of the Living Dead [1990][AC3][5.1][SOLIDFILES][LATINO]

Mensaje por cesarcl el Miér Ago 17, 2016 1:57 am

jonaand escribió:caido

Link resubido
avatar
cesarcl
Moderador
Moderador

Mensajes : 2883
Fecha de inscripción : 06/03/2014

Volver arriba Ir abajo

Re: La noche de los muertos vivientes - Night of the Living Dead [1990][AC3][5.1][SOLIDFILES][LATINO]

Mensaje por resplandor el Dom Oct 23, 2016 12:44 am

Gracias, funciona perfecto para el release: Night.of.the.Living.Dead.1990.1080p.BluRay.X264-AMIABLE

Código:
General
Complete name                            : Night.of.the.Living.Dead.1990.1080p.BluRay.X264-AMIABLE.mkv
Format                                  : Matroska
Format version                          : Version 2
File size                                : 6.56 GiB
Duration                                : 1 h 28 min
Overall bit rate                        : 10.6 Mb/s
Writing application                      : mkvmerge v4.1.1 ('Bouncin' Back') built on Jul  3 2010 22:54:08
Writing library                          : libebml v1.0.0 + libmatroska v1.0

Video
ID                                      : 1
Format                                  : AVC
Format/Info                              : Advanced Video Codec
Format profile                          : High@L4.1
Format settings, CABAC                  : Yes
Format settings, ReFrames                : 4 frames
Codec ID                                : V_MPEG4/ISO/AVC
Duration                                : 1 h 28 min
Bit rate                                : 9 128 kb/s
Width                                    : 1 920 pixels
Height                                  : 1 040 pixels
Display aspect ratio                    : 1.85:1
Frame rate mode                          : Constant
Frame rate                              : 23.976 (24000/1001) FPS
Color space                              : YUV
Chroma subsampling                      : 4:2:0
Bit depth                                : 8 bits
Scan type                                : Progressive
Bits/(Pixel*Frame)                      : 0.191
Stream size                              : 5.50 GiB (84%)
Writing library                          : x264 core 129 r2230 1cffe9f
Encoding settings                        : cabac=1 / ref=4 / deblock=1:0:0 / analyse=0x3:0x113 / me=umh / subme=8 / psy=1 / psy_rd=1.00:0.00 / mixed_ref=1 / me_range=16 / chroma_me=1 / trellis=1 / 8x8dct=1 / cqm=0 / deadzone=21,11 / fast_pskip=1 / chroma_qp_offset=-2 / threads=12 / lookahead_threads=2 / sliced_threads=0 / nr=0 / decimate=1 / interlaced=0 / bluray_compat=0 / constrained_intra=0 / bframes=3 / b_pyramid=2 / b_adapt=2 / b_bias=0 / direct=3 / weightb=1 / open_gop=0 / weightp=2 / keyint=240 / keyint_min=24 / scenecut=40 / intra_refresh=0 / rc_lookahead=50 / rc=2pass / mbtree=1 / bitrate=9128 / ratetol=1.0 / qcomp=0.60 / qpmin=0 / qpmax=69 / qpstep=4 / cplxblur=20.0 / qblur=0.5 / ip_ratio=1.40 / aq=1:1.00
Language                                : English
Default                                  : Yes
Forced                                  : No

Audio
ID                                      : 2
Format                                  : DTS
Format/Info                              : Digital Theater Systems
Mode                                    : 16
Format settings, Endianness              : Big
Codec ID                                : A_DTS
Duration                                : 1 h 28 min
Bit rate mode                            : Constant
Bit rate                                : 1 509 kb/s
Channel(s)                              : 6 channels
Channel positions                        : Front: L C R, Side: L R, LFE
Sampling rate                            : 48.0 kHz
Frame rate                              : 93.750 FPS (512 spf)
Bit depth                                : 24 bits
Compression mode                        : Lossy
Stream size                              : 953 MiB (14%)
Language                                : English
Default                                  : Yes
Forced                                  : No

Menu
00:00:00.000                            : en:00:00:00.000
00:08:25.630                            : en:00:08:25.630
00:20:03.452                            : en:00:20:03.452
00:27:50.043                            : en:00:27:50.043
00:33:28.715                            : en:00:33:28.715
00:37:06.891                            : en:00:37:06.891
00:44:05.226                            : en:00:44:05.226
00:53:19.988                            : en:00:53:19.988
00:59:48.627                            : en:00:59:48.627
01:11:31.787                            : en:01:11:31.787
01:17:56.755                            : en:01:17:56.755
01:25:07.978                            : en:01:25:07.978

avatar
resplandor
Novato Pro
Novato Pro

Mensajes : 258
Fecha de inscripción : 12/07/2015

Volver arriba Ir abajo

Re: La noche de los muertos vivientes - Night of the Living Dead [1990][AC3][5.1][SOLIDFILES][LATINO]

Mensaje por tomcruise el Miér Nov 23, 2016 6:44 am

aportaso

tomcruise
Novato
Novato

Mensajes : 3
Fecha de inscripción : 22/11/2016

Volver arriba Ir abajo

Re: La noche de los muertos vivientes - Night of the Living Dead [1990][AC3][5.1][SOLIDFILES][LATINO]

Mensaje por pachango64 el Vie Dic 30, 2016 1:11 pm

Buen aporte

pachango64
Novato
Novato

Mensajes : 2
Fecha de inscripción : 30/12/2016

Volver arriba Ir abajo

Re: La noche de los muertos vivientes - Night of the Living Dead [1990][AC3][5.1][SOLIDFILES][LATINO]

Mensaje por TheMightyD el Lun Ene 23, 2017 12:05 pm

¿Necesitará delay para Night.of.the.Living.Dead.1990.1080p.BluRay.H264.AAC-RARBG?

TheMightyD
Novato
Novato

Mensajes : 27
Fecha de inscripción : 23/07/2016

Volver arriba Ir abajo

Re: La noche de los muertos vivientes - Night of the Living Dead [1990][AC3][5.1][SOLIDFILES][LATINO]

Mensaje por Apocalipsis_08 el Mar Ago 08, 2017 10:14 am

Gracias por este aporte Smile ojala se pueda conseguir el DVD oficial R1 para el montaje en la red, saludos....
avatar
Apocalipsis_08
Novato
Novato

Mensajes : 31
Fecha de inscripción : 14/08/2016
Localización : Perú

Volver arriba Ir abajo

Re: La noche de los muertos vivientes - Night of the Living Dead [1990][AC3][5.1][SOLIDFILES][LATINO]

Mensaje por Contenido patrocinado


Contenido patrocinado


Volver arriba Ir abajo

Ver el tema anterior Ver el tema siguiente Volver arriba

- Temas similares

 
Permisos de este foro:
No puedes responder a temas en este foro.